(Classical) Tempus fugit: Music of Late Middle Ages - Spielleyt - Early Music Freiburg - 2003, FLAC (image+.cue) lossless


 

[Цитировать]

Tempus fugit: Music of Late Middle Ages - Spielleyt - Early Music Freiburg
Жанр: Classical
Страна-производитель диска: Germany
Год издания диска: 2003
Издатель (лейбл): Christophorus
Номер по каталогу: CHR 77258
Дата записи: 2003
Аудиокодек: FLAC
Тип рипа: image+.cue
Битрейт аудио: lossless
Продолжительность: 68:49
Источник: собственный рип
Наличие сканов в содержимом раздачи: да
Треклист:
Spring
[1] Oswald von Wolkenstein: Vil lieber grusse susse
[2] Quan ye voy le duc tens venir
[3] Jean Vaillant: Par maintes foys
[4] En biancha vesta
Summer
[5] Oswald von Wolkenstein: Froleichen so well wir
[6] Ghaetta
[7] Alonso - Cancionero Musical de Palacio: La tricotea / Propinan de Melyor
[8] Cancionero Musical de Palacio: Rodrigo Martines
[9] Salterello
Autumn
[10] Hugo von Montfort: Fro welt ir sint gar hupsch und schon
[11] Lorenzo da Firenze: A poste messe
[12] Guillaume Dufay: Adieu ces bons vins de Lannoys
[13] Lochamer Liederbuch: Der wallt hat sich entlawbet
Winter
[14] Nu tret herzuo der boessen welle
[15] Verbum caro factum est
[16] Italian 15th c / Oswald von Wolkenstein: Ave mater o Maria
[17] Passacalli della vita
Epilogue
[18] John Dowland: Time stands still
Исполнители:
Spielleyt - Early Music Freiburg

Лог создания рипа

Exact Audio Copy V1.0 beta 3 from 29. August 2011
EAC extraction logfile from 15. May 2014, 11:25
Freiburger Spielleyt / Tempus Fugit
Used drive : HL-DT-STDVDRRW GWA-4164B Adapter: 5 ID: 0
Read mode : SecureUtilize accurate stream : YesDefeat audio cache : YesMake use of C2 pointers : No
Read offset correction : 102Overread into Lead-In and Lead-Out : NoFill up missing offset samples with silence : YesDelete leading and trailing silent blocks : NoNull samples used in CRC calculations : YesUsed interface : Native Win32 interface for Win NT & 2000
Used output format : User Defined EncoderSelected bitrate : 896 kBit/sQuality : HighAdd ID3 tag : NoCommand line compressor : C:\Program Files\Exact Audio Copy\FLAC\FLAC.EXEAdditional command line options : -V -8 %source%
TOC of the extracted CD
Track | Start | Length | Start sector | End sector --------------------------------------------------------- 1 | 0:00.00 | 3:35.49 | 0 | 16173 2 | 3:35.49 | 2:49.74 | 16174 | 28922 3 | 6:25.48 | 3:04.19 | 28923 | 42741 4 | 9:29.67 | 4:45.73 | 42742 | 64189 5 | 14:15.65 | 4:27.09 | 64190 | 84223 6 | 18:42.74 | 4:47.57 | 84224 | 105805 7 | 23:30.56 | 2:39.55 | 105806 | 117785 8 | 26:10.36 | 3:14.34 | 117786 | 132369 9 | 29:24.70 | 3:48.63 | 132370 | 149532 10 | 33:13.58 | 5:27.41 | 149533 | 174098 11 | 38:41.24 | 3:22.13 | 174099 | 189261 12 | 42:03.37 | 3:03.12 | 189262 | 202998 13 | 45:06.49 | 4:24.54 | 202999 | 222852 14 | 49:31.28 | 5:34.20 | 222853 | 247922 15 | 55:05.48 | 2:50.12 | 247923 | 260684 16 | 57:55.60 | 4:28.02 | 260685 | 280786 17 | 62:23.62 | 4:14.04 | 280787 | 299840 18 | 66:37.66 | 1:52.55 | 299841 | 308295
Range status and errors
Selected range
Filename D:\temp\Music\Tempus Fugit - Freiburger Spielleyt\Tempus Fugit.wav
Peak level 97.9 % Extraction speed 3.0 X Range quality 100.0 % Test CRC 44182063 Copy CRC 44182063 Copy OK
No errors occurred
AccurateRip summary
Track 1 cannot be verified as accurate (confidence 3) [9AD2D5CB], AccurateRip returned [17B105D0] (AR v2)Track 2 cannot be verified as accurate (confidence 3) [681DE161], AccurateRip returned [D5EDCEE5] (AR v2)Track 3 cannot be verified as accurate (confidence 3) [44B64752], AccurateRip returned [A02185E6] (AR v2)Track 4 cannot be verified as accurate (confidence 3) [31483C9C], AccurateRip returned [80F5A953] (AR v2)Track 5 cannot be verified as accurate (confidence 3) [7211D7F6], AccurateRip returned [4E06B65F] (AR v2)Track 6 cannot be verified as accurate (confidence 3) [D962ECBD], AccurateRip returned [8856C28D] (AR v2)Track 7 cannot be verified as accurate (confidence 3) [625C1800], AccurateRip returned [50A09E37] (AR v2)Track 8 cannot be verified as accurate (confidence 3) [E04F2C1C], AccurateRip returned [6939ED24] (AR v2)Track 9 cannot be verified as accurate (confidence 3) [32C9C095], AccurateRip returned [87A276DF] (AR v2)Track 10 cannot be verified as accurate (confidence 3) [C16D9A90], AccurateRip returned [A2CFEBE4] (AR v2)Track 11 cannot be verified as accurate (confidence 3) [7FF9DE4C], AccurateRip returned [F095C507] (AR v2)Track 12 cannot be verified as accurate (confidence 3) [6AEF7885], AccurateRip returned [4FA5D80D] (AR v2)Track 13 cannot be verified as accurate (confidence 3) [4A597BB6], AccurateRip returned [089CED4E] (AR v2)Track 14 cannot be verified as accurate (confidence 3) [2F4BCE62], AccurateRip returned [61A307BE] (AR v2)Track 15 cannot be verified as accurate (confidence 3) [9352C329], AccurateRip returned [C761F073] (AR v2)Track 16 cannot be verified as accurate (confidence 3) [B95F57E5], AccurateRip returned [416D55AC] (AR v2)Track 17 cannot be verified as accurate (confidence 3) [8EF217D3], AccurateRip returned [C63DBC26] (AR v2)Track 18 cannot be verified as accurate (confidence 3) [3561EBC7], AccurateRip returned [5820F227] (AR v2)
No tracks could be verified as accurateYou may have a different pressing from the one(s) in the database
End of status report
==== Log checksum B44BEC3FDB2EC7F4E1856B491AE6EA8383E886E42D59B95BD81B43DF141D1F77 ====



Показать сообщения:    

Текущее время: 03-Дек 22:41

Часовой пояс: UTC + 3


Вы не можете начинать темы
Вы не можете отвечать на сообщения
Вы не можете редактировать свои сообщения
Вы не можете удалять свои сообщения
Вы не можете голосовать в опросах
Вы не можете прикреплять файлы к сообщениям
Вы не можете скачивать файлы