(Classical) Vivaldi: Pieta - Philippe Jaroussky, Ensemble Artaserse - 2014, APE (image+.cue) lossless


 

[Цитировать]

Vivaldi: Pieta - Philippe Jaroussky, Ensemble Artaserse
Жанр: Classical
Страна-производитель диска: UK
Год издания диска: 2014
Издатель (лейбл): Erato
Дата записи: 2014
Аудиокодек: APE
Тип рипа: image+.cue
Битрейт аудио: lossless
Источник: собственный рип
Наличие сканов в содержимом раздачи: нет

Исполнители

Philippe Jaroussky (countertenor & direction)Ensemble Artaserse

Треклист

Clara stella e scintillate, RV 625: I. "Clarae stellae, scintillate"Clara stella e scintillate, RV 625: II. "Coeli repleti iam novo splendore"Clara stella e scintillate, RV 625: III. "Nunc iubilare"Clara stella e scintillate, RV 625: IV. "Alleluia"Stabat Mater, RV 621: I. "Stabat Mater dolorosa"Stabat Mater, RV 621: II. "Cuius animam gementem"Stabat Mater, RV 621: III. "O quam tristis "Stabat Mater, RV 621: IV. "Quis est homo"Stabat Mater, RV 621: V. "Quis non posset "Stabat Mater, RV 621: VI. "Pro peccatis"Stabat Mater, RV 621: VII. "Eia Mater"Stabat Mater, Rv 621: VIII. "Fac Ut Ardeat"Stabat Mater, RV 621: IX. "Amen"Filiae maestae Jerusalem, RV 638: I. "Filiae maestae Jerusalem"Filiae maestae Jerusalem, RV 638: II. "Sileant Zephyri"Filiae maestae Jerusalem, RV 638: III. "Sed tenebris diffusis"Concerto in C Minor, RV 120: I. Allegro non moltoConcerto in C Minor, RV 120: II. LargoConcerto in C Minor, RV 120: III. AllegroGloria in D Major, RV 589: VI. Domine DeusLonge mala, umbrae, terrores, RV 629: I. "Longe mala, umbrae, terrores"Longe mala, umbrae, terrores, RV 629: II. "Recedite, nubes et fulgura"Longe mala, umbrae, terrores, RV 629: III. "Descende, o coeli vox"Longe mala, umbrae, terrores, RV 629: IV. "Alleluia"Salve Regina in G Minor, RV 618: I. "Salve Regina"Salve Regina in G Minor, RV 618: II. "Ad te clamamus"Salve Regina in G Minor, RV 618: III. "Ad te suspiramus"Salve Regina in G Minor, RV 618: IV. "Eia ergo, advocata nostra"Salve Regina in G Minor, RV 618: V. "Et Jesum benedictum fructum"Salve Regina in G Minor, RV 618: VI. "O clemens"

Лог создания рипа

Exact Audio Copy V1.0 beta 3 from 29. August 2011
EAC extraction logfile from 31. October 2014, 12:58
Philippe Jaroussky - Ensemble Artaserse / Vivaldi: Pieta
Used drive : TS8XDVDRTranscend Adapter: 2 ID: 1
Read mode : SecureUtilize accurate stream : YesDefeat audio cache : YesMake use of C2 pointers : No
Read offset correction : 6Overread into Lead-In and Lead-Out : NoFill up missing offset samples with silence : YesDelete leading and trailing silent blocks : NoNull samples used in CRC calculations : YesUsed interface : Native Win32 interface for Win NT & 2000
Used output format : Monkey's Audio Lossless EncoderSelected bitrate : Normal Lossless CompressionQuality : HighAdd ID3 tag : YesCommand line compressor : C:\Program Files (x86)\Monkey's Audio\MAC.exeAdditional command line options : %source% %dest% -c3000
TOC of the extracted CD
Track | Start | Length | Start sector | End sector --------------------------------------------------------- 1 | 0:00.00 | 5:24.14 | 0 | 24313 2 | 5:24.14 | 0:48.54 | 24314 | 27967 3 | 6:12.68 | 2:07.48 | 27968 | 37540 4 | 8:20.41 | 2:26.42 | 37541 | 48532 5 | 10:47.08 | 3:06.07 | 48533 | 62489 6 | 13:53.15 | 1:45.41 | 62490 | 70405 7 | 15:38.56 | 1:45.61 | 70406 | 78341 8 | 17:24.42 | 3:22.00 | 78342 | 93491 9 | 20:46.42 | 1:55.70 | 93492 | 102186 10 | 22:42.37 | 1:42.19 | 102187 | 109855 11 | 24:24.56 | 3:29.04 | 109856 | 125534 12 | 27:53.60 | 1:45.37 | 125535 | 133446 13 | 29:39.22 | 0:57.49 | 133447 | 137770 14 | 30:36.71 | 1:57.68 | 137771 | 146613 15 | 32:34.64 | 6:26.49 | 146614 | 175612 16 | 39:01.38 | 1:02.19 | 175613 | 180281 17 | 40:03.57 | 1:39.39 | 180282 | 187745 18 | 41:43.21 | 1:38.23 | 187746 | 195118 19 | 43:21.44 | 2:04.05 | 195119 | 204423 20 | 45:25.49 | 3:50.03 | 204424 | 221676 21 | 49:15.52 | 5:02.53 | 221677 | 244379 22 | 54:18.30 | 0:33.45 | 244380 | 246899 23 | 54:52.00 | 7:23.08 | 246900 | 280132 24 | 62:15.08 | 2:22.48 | 280133 | 290830 25 | 64:37.56 | 3:54.06 | 290831 | 308386 26 | 68:31.62 | 1:33.74 | 308387 | 315435 27 | 70:05.61 | 2:58.01 | 315436 | 328786 28 | 73:03.62 | 1:26.12 | 328787 | 335248 29 | 74:29.74 | 1:36.13 | 335249 | 342461 30 | 76:06.12 | 2:23.48 | 342462 | 353234
Range status and errors
Selected range
Filename C:\Users\Alex\Music\Jaroussky - Pieta (2014)\CDImage.wav
Peak level 95.7 % Extraction speed 1.9 X Range quality 100.0 % Test CRC 68A30EAF Copy CRC 68A30EAF Copy OK
No errors occurred
AccurateRip summary
Track 1 not present in databaseTrack 2 not present in databaseTrack 3 not present in databaseTrack 4 not present in databaseTrack 5 not present in databaseTrack 6 not present in databaseTrack 7 not present in databaseTrack 8 not present in databaseTrack 9 not present in databaseTrack 10 not present in databaseTrack 11 not present in databaseTrack 12 not present in databaseTrack 13 not present in databaseTrack 14 not present in databaseTrack 15 not present in databaseTrack 16 not present in databaseTrack 17 not present in databaseTrack 18 not present in databaseTrack 19 not present in databaseTrack 20 not present in databaseTrack 21 not present in databaseTrack 22 not present in databaseTrack 23 not present in databaseTrack 24 not present in databaseTrack 25 not present in databaseTrack 26 not present in databaseTrack 27 not present in databaseTrack 28 not present in databaseTrack 29 not present in databaseTrack 30 not present in database
None of the tracks are present in the AccurateRip database
End of status report
==== Log checksum 12BA0CC3CBAFE19E2F9A2F21AF817EEE9CAD64FF258D1CB8D7F31A303F03A202 ====

Содержание индексной карты (.CUE)

REM GENRE ClassicalREM DATE 2014REM DISCID CD12651EREM COMMENT "ExactAudioCopy v1.0b3"PERFORMER "Philippe Jaroussky - Ensemble Artaserse"TITLE "Vivaldi: Pieta"FILE "CDImage.ape" WAVE TRACK 01 AUDIO TITLE "Clara stella e scintillate, RV 625: I. Clarae stellae, scintillate " PERFORMER "Philippe Jaroussky - Ensemble Artaserse" INDEX 01 00:00:00 TRACK 02 AUDIO TITLE "Clara stella e scintillate, RV 625: II. Coeli repleti iam novo splendore " PERFORMER "Philippe Jaroussky - Ensemble Artaserse" INDEX 01 05:24:14 TRACK 03 AUDIO TITLE "Clara stella e scintillate, RV 625: III. Nunc iubilare " PERFORMER "Philippe Jaroussky - Ensemble Artaserse" INDEX 01 06:12:68 TRACK 04 AUDIO TITLE "Clara stella e scintillate, RV 625: IV. Alleluia " PERFORMER "Philippe Jaroussky - Ensemble Artaserse" INDEX 01 08:20:41 TRACK 05 AUDIO TITLE "Stabat Mater, RV 621: I. Stabat Mater dolorosa " PERFORMER "Philippe Jaroussky - Ensemble Artaserse" INDEX 00 10:44:13 INDEX 01 10:47:08 TRACK 06 AUDIO TITLE "Stabat Mater, RV 621: II. Cuius animam gementem " PERFORMER "Philippe Jaroussky - Ensemble Artaserse" INDEX 01 13:53:15 TRACK 07 AUDIO TITLE "Stabat Mater, RV 621: III. O quam tristis " PERFORMER "Philippe Jaroussky - Ensemble Artaserse" INDEX 01 15:38:56 TRACK 08 AUDIO TITLE "Stabat Mater, RV 621: IV. Quis est homo " PERFORMER "Philippe Jaroussky - Ensemble Artaserse" INDEX 01 17:24:42 TRACK 09 AUDIO TITLE "Stabat Mater, RV 621: V. Quis non posset " PERFORMER "Philippe Jaroussky - Ensemble Artaserse" INDEX 01 20:46:42 TRACK 10 AUDIO TITLE "Stabat Mater, RV 621: VI. Pro peccatis " PERFORMER "Philippe Jaroussky - Ensemble Artaserse" INDEX 01 22:42:37 TRACK 11 AUDIO TITLE "Stabat Mater, RV 621: VII. Eia Mater " PERFORMER "Philippe Jaroussky - Ensemble Artaserse" INDEX 01 24:24:56 TRACK 12 AUDIO TITLE "Stabat Mater, Rv 621: VIII. Fac Ut Ardeat " PERFORMER "Philippe Jaroussky - Ensemble Artaserse" INDEX 01 27:53:60 TRACK 13 AUDIO TITLE "Stabat Mater, RV 621: IX. Amen " PERFORMER "Philippe Jaroussky - Ensemble Artaserse" INDEX 01 29:39:22 TRACK 14 AUDIO TITLE "Filiae maestae Jerusalem, RV 638: I. Filiae maestae Jerusalem " PERFORMER "Philippe Jaroussky - Ensemble Artaserse" INDEX 00 30:32:13 INDEX 01 30:36:71 TRACK 15 AUDIO TITLE "Filiae maestae Jerusalem, RV 638: II. Sileant Zephyri " PERFORMER "Philippe Jaroussky - Ensemble Artaserse" INDEX 01 32:34:64 TRACK 16 AUDIO TITLE "Filiae maestae Jerusalem, RV 638: III. Sed tenebris diffusis " PERFORMER "Philippe Jaroussky - Ensemble Artaserse" INDEX 01 39:01:38 TRACK 17 AUDIO TITLE "Concerto in C Minor, RV 120: I. Allegro non molto " PERFORMER "Philippe Jaroussky - Ensemble Artaserse" INDEX 00 40:02:68 INDEX 01 40:03:57 TRACK 18 AUDIO TITLE "Concerto in C Minor, RV 120: II. Largo " PERFORMER "Philippe Jaroussky - Ensemble Artaserse" INDEX 01 41:43:21 TRACK 19 AUDIO TITLE "Concerto in C Minor, RV 120: III. Allegro " PERFORMER "Philippe Jaroussky - Ensemble Artaserse" INDEX 01 43:21:44 TRACK 20 AUDIO TITLE "Gloria in D Major, RV 589: VI. Domine Deus " PERFORMER "Philippe Jaroussky - Ensemble Artaserse" INDEX 00 45:22:74 INDEX 01 45:25:49 TRACK 21 AUDIO TITLE "Longe mala, umbrae, terrores, RV 629: I. Longe mala, umbrae, terrores " PERFORMER "Philippe Jaroussky - Ensemble Artaserse" INDEX 00 49:14:48 INDEX 01 49:15:52 TRACK 22 AUDIO TITLE "Longe mala, umbrae, terrores, RV 629: II. Recedite, nubes et fulgura " PERFORMER "Philippe Jaroussky - Ensemble Artaserse" INDEX 01 54:18:30 TRACK 23 AUDIO TITLE "Longe mala, umbrae, terrores, RV 629: III. Descende, o coeli vox " PERFORMER "Philippe Jaroussky - Ensemble Artaserse" INDEX 01 54:52:00 TRACK 24 AUDIO TITLE "Longe mala, umbrae, terrores, RV 629: IV. Alleluia " PERFORMER "Philippe Jaroussky - Ensemble Artaserse" INDEX 01 62:15:08 TRACK 25 AUDIO TITLE "Salve Regina in G Minor, RV 618: I. Salve Regina " PERFORMER "Philippe Jaroussky - Ensemble Artaserse" INDEX 00 64:37:05 INDEX 01 64:37:56 TRACK 26 AUDIO TITLE "Salve Regina in G Minor, RV 618: II. Ad te clamamus " PERFORMER "Philippe Jaroussky - Ensemble Artaserse" INDEX 01 68:31:62 TRACK 27 AUDIO TITLE "Salve Regina in G Minor, RV 618: III. Ad te suspiramus " PERFORMER "Philippe Jaroussky - Ensemble Artaserse" INDEX 01 70:05:61 TRACK 28 AUDIO TITLE "Salve Regina in G Minor, RV 618: IV. Eia ergo, advocata nostra " PERFORMER "Philippe Jaroussky - Ensemble Artaserse" INDEX 01 73:03:62 TRACK 29 AUDIO TITLE "Salve Regina in G Minor, RV 618: V. Et Jesum benedictum fructum " PERFORMER "Philippe Jaroussky - Ensemble Artaserse" INDEX 01 74:29:74 TRACK 30 AUDIO TITLE "Salve Regina in G Minor, RV 618: VI. O clemens" PERFORMER "Philippe Jaroussky - Ensemble Artaserse" INDEX 01 76:06:12



Показать сообщения:    

Текущее время: 04-Дек 04:58

Часовой пояс: UTC + 3


Вы не можете начинать темы
Вы не можете отвечать на сообщения
Вы не можете редактировать свои сообщения
Вы не можете удалять свои сообщения
Вы не можете голосовать в опросах
Вы не можете прикреплять файлы к сообщениям
Вы не можете скачивать файлы