(classical, vocal) Титта Руффо - Titta Ruffo (из серии Prima Voce) [Thomas; Ponchielli; Leoncavallo; Verdi; Donizetti; Massenet; Meyerbeer] - 1990, FLAC (image+.cue) lossless


 

[Цитировать]

Titta Ruffo - Prima Voce
Жанр: classical, vocal
Страна-производитель диска: UK
Год издания диска: 1990
Издатель (лейбл): Nimbus Records
Номер по каталогу: NI 7810
Дата записи: 1907-1926
Аудиокодек: FLAC
Тип рипа: image+.cue
Битрейт аудио: lossless
Продолжительность: 1:16:06
Источник: собственный рип
Наличие сканов в содержимом раздачи: да
Треклист:
Ambroise Thomas
1.«Amleto» - O vin, discaccia la tristezza
Giuseppe Verdi
2. «La Traviata» - Di Provenza il mar, il suol
Amilcare Ponchielli
3. «La Gioconda» - O monumento! Regia e bolgia dogale!
4. «La Gioconda» - Ah! Pescator affonda l'esca
Ruggero Leoncavallo
5. «Pagliacci» - Si puo?
6. «Zaza» - Buona Zaza!
7. «Zaza» - Zaza, piccola zingara
Mario Ferradini
8. Non Penso a Lei
Gaetano Donizetti
9. «La Favorita» - Vien, Leonora, a piedi tuoi
Jules Massenet
10. «Thais» - Ecco dunque l'orribil citta
Giuseppe Verdi
11. «Otello» - Credo in un Dio crudel
12. «Otello» - Era la notte
13. «Otello» - Si, pel del marmoreo giuro!
14. «Nabucco» - Che tenti? ... Oh trema insano! ... Tremin gl'insani
Giacomo Meyerbeer
15. «L'Africana» - All'erta, marinar!
Giuseppe Verdi
16. «Un Ballo in Maschera» - Eri tu
Giacomo Puccini
17. «Tosca» - Gia, mi dicon venal
Gioachino Rossini
18. «Il Barbiere Di Sivigla» - Largo al factotum
Giuseppe Verdi
19. «Rigoletto» - Pari siamo
20. «Falstaff» - Quand'ero paggio
Amilcare Ponchielli
21. «La Gioconda» - Enzo Grimaldo, Principe di Santafior
Исполнители:
Titta Ruffo; [21] with Beniamino Gigli

Лог создания рипа

Exact Audio Copy V1.0 beta 3 from 29. August 2011
EAC extraction logfile from 29. October 2014, 14:07
Titta Ruffo / Prima Voce
Used drive : Optiarc DVD RW AD-7283S Adapter: 1 ID: 0
Read mode : SecureUtilize accurate stream : YesDefeat audio cache : YesMake use of C2 pointers : No
Read offset correction : 48Overread into Lead-In and Lead-Out : NoFill up missing offset samples with silence : YesDelete leading and trailing silent blocks : NoNull samples used in CRC calculations : YesUsed interface : Native Win32 interface for Win NT & 2000
Used output format : Internal WAV RoutinesSample format : 44.100 Hz; 16 Bit; Stereo
TOC of the extracted CD
Track | Start | Length | Start sector | End sector --------------------------------------------------------- 1 | 0:00.00 | 3:51.00 | 0 | 17324 2 | 3:51.00 | 3:05.00 | 17325 | 31199 3 | 6:56.00 | 4:09.00 | 31200 | 49874 4 | 11:05.00 | 3:03.00 | 49875 | 63599 5 | 14:08.00 | 8:13.00 | 63600 | 100574 6 | 22:21.00 | 2:12.00 | 100575 | 110474 7 | 24:33.00 | 2:36.00 | 110475 | 122174 8 | 27:09.00 | 2:31.00 | 122175 | 133499 9 | 29:40.00 | 3:27.00 | 133500 | 149024 10 | 33:07.00 | 3:04.00 | 149025 | 162824 11 | 36:11.00 | 4:36.00 | 162825 | 183524 12 | 40:47.00 | 4:07.00 | 183525 | 202049 13 | 44:54.00 | 4:49.00 | 202050 | 223724 14 | 49:43.00 | 2:47.00 | 223725 | 236249 15 | 52:30.00 | 1:49.00 | 236250 | 244424 16 | 54:19.00 | 4:36.00 | 244425 | 265124 17 | 58:55.00 | 2:45.00 | 265125 | 277499 18 | 61:40.00 | 4:20.00 | 277500 | 296999 19 | 66:00.00 | 3:58.00 | 297000 | 314849 20 | 69:58.00 | 1:39.00 | 314850 | 322274 21 | 71:37.00 | 4:29.00 | 322275 | 342449
Range status and errors
Selected range
Filename D:\WORK\Titta Ruffo - Prima Voce [1990]\Titta Ruffo - Prima Voce.wav
Peak level 66.2 % Extraction speed 4.6 X Range quality 99.9 % Copy CRC 9A25C497 Copy OK
No errors occurred
AccurateRip summary
Track 1 cannot be verified as accurate (confidence 3) [2D0E63C6], AccurateRip returned [0FB9804B] (AR v2)Track 2 cannot be verified as accurate (confidence 4) [89561C0B], AccurateRip returned [967A1FEC] (AR v2)Track 3 cannot be verified as accurate (confidence 4) [5695141D], AccurateRip returned [599E4038] (AR v2)Track 4 cannot be verified as accurate (confidence 4) [911F7DB3], AccurateRip returned [DC2C25FD] (AR v2)Track 5 cannot be verified as accurate (confidence 4) [5DC3EC89], AccurateRip returned [368644E8] (AR v2)Track 6 cannot be verified as accurate (confidence 3) [6F8827B6], AccurateRip returned [A8136BAB] (AR v2)Track 7 cannot be verified as accurate (confidence 3) [1D9C2670], AccurateRip returned [43DAD140] (AR v2)Track 8 cannot be verified as accurate (confidence 3) [80206E30], AccurateRip returned [56B2A817] (AR v2)Track 9 cannot be verified as accurate (confidence 3) [5DF34DE4], AccurateRip returned [B2E21CE7] (AR v2)Track 10 cannot be verified as accurate (confidence 3) [BB32437F], AccurateRip returned [F6CE5B8D] (AR v2)Track 11 cannot be verified as accurate (confidence 5) [5CFCE622], AccurateRip returned [A7B90756] (AR v2)Track 12 cannot be verified as accurate (confidence 3) [05A36520], AccurateRip returned [6AD953B7] (AR v2)Track 13 cannot be verified as accurate (confidence 3) [68F341AA], AccurateRip returned [2B15C946] (AR v2)Track 14 cannot be verified as accurate (confidence 3) [DE36461D], AccurateRip returned [4932718F] (AR v2)Track 15 cannot be verified as accurate (confidence 3) [2741FBA4], AccurateRip returned [1426FE2B] (AR v2)Track 16 cannot be verified as accurate (confidence 4) [3107CAD7], AccurateRip returned [15661D79] (AR v2)Track 17 cannot be verified as accurate (confidence 4) [F561B5E1], AccurateRip returned [9A231E7B] (AR v2)Track 18 cannot be verified as accurate (confidence 4) [E3AF4DB6], AccurateRip returned [AB04E56B] (AR v2)Track 19 cannot be verified as accurate (confidence 3) [B241F5EF], AccurateRip returned [F89DD26A] (AR v2)Track 20 cannot be verified as accurate (confidence 3) [67F93E4F], AccurateRip returned [D3557D21] (AR v2)Track 21 cannot be verified as accurate (confidence 3) [606493EC], AccurateRip returned [65421CEA] (AR v2)
No tracks could be verified as accurateYou may have a different pressing from the one(s) in the database
End of status report

Лог проверки качества

AUDIOCHECKER v2.0 beta (build 457) - by Dester - opdester@freemail.hu~~~~~~~~~~~~~~~~~~~~~~~~~~~~~~~~~~-=== DO NOT EDIT THIS FILE! ===-
Path: ...\Titta Ruffo - Prima Voce [1990]
1 -=- Titta Ruffo - Prima Voce.wav -=- CDDA (62%)
203022324

Скриншот спектра частот




Показать сообщения:    

Текущее время: 07-Дек 17:26

Часовой пояс: UTC + 3


Вы не можете начинать темы
Вы не можете отвечать на сообщения
Вы не можете редактировать свои сообщения
Вы не можете удалять свои сообщения
Вы не можете голосовать в опросах
Вы не можете прикреплять файлы к сообщениям
Вы не можете скачивать файлы