(Baroque/Vocal/Sacred) Vivaldi - Salve Regina RV618 * Deus tuorum RV612 * Stabat Mater RV621 * Confitebor RV596 * Nisi Dominus RV608 (Kowalski, Van der Meel - Royal Concertgebouw Chamber Orchestra, Negri) - 1991, APE (image+.cue) lossless


 

[Цитировать]

Antonio Vivaldi - Salve Regina RV618 * Deus tuorum RV612 * Stabat Mater RV621 * Confitebor RV596 * Nisi Dominus RV608
Жанр: Baroque/Vocal/Sacred
Страна-производитель диска: Germany
Год издания диска: 1991
Издатель (лейбл): Philips / Eloquence
Номер по каталогу: 464 540-2
Дата записи: 1991
Аудиокодек: APE
Тип рипа: image+.cue
Битрейт аудио: lossless
Продолжительность: 68'09
Источник: собственный рип
Наличие сканов в содержимом раздачи: да
Треклист/Исполнители:
Salve Regina in C minor (Antiphona), RV 618, Revised by Vittorio Negri
1. Salve Regina (Andante molto)
2. Ad te clamamus (Allegro)
3. Ad te suspiramus (Larghetto)
4. Eja ergo (Allegro)
5. Et Jesum (Andante)
6. O clemens (Larghetto)
Jochen Kowalski, Altus
Royal Concertgebouw Chamber Orchestra
Vittorio Negri

Deus tuorum militum

7. Deus tuorum militum in C major(Hymnus), RV 612
Jochen Kowalski, Altus
Nico Van der Meel, Tenor
John Constable (Organ)
Raphael Alpermann (Organ)
Royal Concertgebouw Chamber Orchestra
Vittorio Negri

Stabat Mater

Stabat Mater in F minor, RV 621
8. 1. "Stabat Mater" (Largo)
9. 2. "Cuius animam" (Adagissimo)
10. 3. "O quam tristis" (Andante)
11. 4. "Quis est homo" (Largo)
12. 5. "Quis non posset" (Adagissimo)
13. 6. "Pro peccatis" (Andante)
14. 7. "Eja Mater" (Largo)
15. 8. "Fac ut ardeat" (Lento)
16. 9. "Amen" (Allegro)
Jochen Kowalski, Altus
John Constable (Organ)
Raphael Alpermann (Organ)
Royal Concertgebouw Chamber Orchestra
Vittorio Negri

Confitebor

Confitebor tibi Domine in C, RV 596, Revised by Vittorio Negri
17. 1. Confitebor (Allegro)
18. 2. Memoriam fecit (Allegro)
19. 3. Sanctum et terribile nomen (Andante - Andante mol- to)
20. 4. Intellectus bonus omnibus (Allegro)
21. 5. Gloria Patri et Filio (Allegro)
22. 6. Et in saecula saeculorum - Amen (Allegro)
Jochen Kowalski, Altus
Nico Van der Meel, Tenor
Royal Concertgebouw Chamber Orchestra
Vittorio Negri

Nisi Dominus

Nisi Dominus in G minor, RV 608 (Psalm 126)
23. 1. "Nisi Dominus" (Allegro)
24. 2. "Vanum est vobis" (Largo)
25. 3. "Surgite" (Presto)
26. 4. "Cum dederit" (Andante)
27. 5. "Sicut sagittae" (Allegro)
28. 6. "Beatus vir" (Andante)
29. 7. "Gloria Patri" (Larghetto)
30. 8. "Sicut erat in principio" (Allegro)
31. 9. "Amen" (Allegro)
Jochen Kowalski, Altus
John Constable (Organ)
Raphael Alpermann (Organ)
Royal Concertgebouw Chamber Orchestra
Vittorio Negri

Лог создания рипа

Exact Audio Copy V1.0 beta 3 from 29. August 2011
EAC extraction logfile from 10. August 2014, 23:33
Vivaldi / Stabat Mater_Salve Regina etc.,
Used drive : HL-DT-STDVDRAM GH22NS50 Adapter: 0 ID: 2
Read mode : SecureUtilize accurate stream : YesDefeat audio cache : YesMake use of C2 pointers : No
Read offset correction : 667Overread into Lead-In and Lead-Out : NoFill up missing offset samples with silence : YesDelete leading and trailing silent blocks : NoNull samples used in CRC calculations : YesUsed interface : Native Win32 interface for Win NT & 2000
Used output format : Monkey's Audio Lossless EncoderSelected bitrate : High Lossless CompressionQuality : HighAdd ID3 tag : NoCommand line compressor : C:\Program Files (x86)\Exact Audio Copy\MAC\MAC.exe
TOC of the extracted CD
Track | Start | Length | Start sector | End sector --------------------------------------------------------- 1 | 0:00.00 | 2:15.38 | 0 | 10162 2 | 2:15.38 | 1:47.09 | 10163 | 18196 3 | 4:02.47 | 2:48.70 | 18197 | 30866 4 | 6:51.42 | 1:23.05 | 30867 | 37096 5 | 8:14.47 | 2:09.19 | 37097 | 46790 6 | 10:23.66 | 2:19.61 | 46791 | 57276 7 | 12:43.52 | 5:11.38 | 57277 | 80639 8 | 17:55.15 | 3:17.41 | 80640 | 95455 9 | 21:12.56 | 1:42.07 | 95456 | 103112 10 | 22:54.63 | 2:00.38 | 103113 | 112150 11 | 24:55.26 | 3:12.56 | 112151 | 126606 12 | 28:08.07 | 1:33.43 | 126607 | 133624 13 | 29:41.50 | 1:53.55 | 133625 | 142154 14 | 31:35.30 | 2:17.20 | 142155 | 152449 15 | 33:52.50 | 2:01.55 | 152450 | 161579 16 | 35:54.30 | 1:04.35 | 161580 | 166414 17 | 36:58.65 | 2:43.06 | 166415 | 178645 18 | 39:41.71 | 2:36.74 | 178646 | 190419 19 | 42:18.70 | 3:07.10 | 190420 | 204454 20 | 45:26.05 | 1:37.49 | 204455 | 211778 21 | 47:03.54 | 1:13.14 | 211779 | 217267 22 | 48:16.68 | 1:14.22 | 217268 | 222839 23 | 49:31.15 | 2:55.52 | 222840 | 236016 24 | 52:26.67 | 1:04.17 | 236017 | 240833 25 | 53:31.09 | 1:21.26 | 240834 | 246934 26 | 54:52.35 | 4:13.01 | 246935 | 265910 27 | 59:05.36 | 1:46.46 | 265911 | 273906 28 | 60:52.07 | 1:03.20 | 273907 | 278651 29 | 61:55.27 | 4:24.06 | 278652 | 298457 30 | 66:19.33 | 1:09.12 | 298458 | 303644 31 | 67:28.45 | 1:52.10 | 303645 | 312054
Range status and errors
Selected range
Filename D:\EAC\Vivaldi - Stabat Mater_Salve Regina etc.,.wav
Peak level 98.1 % Extraction speed 2.0 X Range quality 100.0 % Test CRC 6C243A50 Copy CRC 6C243A50 Copy OK
No errors occurred
AccurateRip summary
Track 1 accurately ripped (confidence 2) [E4A31E7C] (AR v2)Track 2 accurately ripped (confidence 2) [7486EC4B] (AR v2)Track 3 accurately ripped (confidence 2) [D6C119A5] (AR v2)Track 4 accurately ripped (confidence 2) [03EA28BB] (AR v2)Track 5 accurately ripped (confidence 2) [559BB3B4] (AR v2)Track 6 accurately ripped (confidence 2) [91F1CA51] (AR v2)Track 7 accurately ripped (confidence 2) [5267BCFD] (AR v2)Track 8 accurately ripped (confidence 2) [5CBA4593] (AR v2)Track 9 accurately ripped (confidence 2) [D6A827E9] (AR v2)Track 10 accurately ripped (confidence 2) [6AA7977F] (AR v2)Track 11 accurately ripped (confidence 2) [DA64F58F] (AR v2)Track 12 accurately ripped (confidence 2) [CDFD1CD3] (AR v2)Track 13 accurately ripped (confidence 2) [248491E0] (AR v2)Track 14 accurately ripped (confidence 2) [103006B6] (AR v2)Track 15 accurately ripped (confidence 2) [DED1BD98] (AR v2)Track 16 accurately ripped (confidence 2) [FA17FCB5] (AR v2)Track 17 accurately ripped (confidence 2) [61BDF85C] (AR v2)Track 18 accurately ripped (confidence 2) [2AC1F863] (AR v2)Track 19 accurately ripped (confidence 2) [613F2295] (AR v2)Track 20 accurately ripped (confidence 2) [C0DD3595] (AR v2)Track 21 accurately ripped (confidence 2) [2AE54B87] (AR v2)Track 22 accurately ripped (confidence 2) [0EF2762C] (AR v2)Track 23 accurately ripped (confidence 2) [19A421C2] (AR v2)Track 24 accurately ripped (confidence 2) [6EA1ECF2] (AR v2)Track 25 accurately ripped (confidence 2) [0651B78F] (AR v2)Track 26 accurately ripped (confidence 2) [B3C2D444] (AR v2)Track 27 accurately ripped (confidence 2) [38BE3779] (AR v2)Track 28 accurately ripped (confidence 2) [1A500CB3] (AR v2)Track 29 accurately ripped (confidence 2) [BF0DC4D0] (AR v2)Track 30 accurately ripped (confidence 2) [94B47F93] (AR v2)Track 31 accurately ripped (confidence 2) [17763C42] (AR v2)
All tracks accurately ripped
End of status report
---- CUETools DB Plugin V2.1.3
[CTDB TOCID: gvLfqsRePLL8R.IEfg4f8dpQRlU-] found, Submit result: gvLfqsRePLL8R.IEfg4f8dpQRlU- has been confirmed[019923b9] (2/2) Accurately ripped
==== Log checksum E60BF31F3332B33C66B27C177FC1A42C11C4D6F8ECD021451AA3D686A7A854BF ====

Содержание индексной карты (.CUE)

REM GENRE ClassicalREM DISCID DD10401FREM COMMENT "ExactAudioCopy v1.0b3"CATALOG 0028946454022PERFORMER "Vivaldi"TITLE "Stabat Mater_Salve Regina etc., "FILE "Vivaldi - Stabat Mater_Salve Regina etc.,.ape" WAVE TRACK 01 AUDIO TITLE "Salve Regina (RV618) - 1. Salve Regina (Andante molto)" PERFORMER "Vivaldi" ISRC NLA508902101 INDEX 01 00:00:00 TRACK 02 AUDIO TITLE "Salve Regina (RV618) - 2. Ad te clamamus (Allegro)" PERFORMER "Vivaldi" ISRC NLA508902102 INDEX 01 02:15:38 TRACK 03 AUDIO TITLE "Salve Regina (RV618) - 3. Ad te suspiramus (Larghetto)" PERFORMER "Vivaldi" ISRC NLA508902103 INDEX 01 04:02:47 TRACK 04 AUDIO TITLE "Salve Regina (RV618) - 4. Eia ergo (Allegro)" PERFORMER "Vivaldi" ISRC NLA508902104 INDEX 01 06:51:42 TRACK 05 AUDIO TITLE "Salve Regina (RV618) - 5. Et Jesum (Andante)" PERFORMER "Vivaldi" ISRC NLA508902105 INDEX 01 08:14:47 TRACK 06 AUDIO TITLE "Salve Regina (RV618) - O clemens (Andante)" PERFORMER "Vivaldi" ISRC NLA508902106 INDEX 01 10:23:66 TRACK 07 AUDIO TITLE "Deus tuorum militum (RV612)" PERFORMER "Vivaldi" ISRC NLA508902163 INDEX 00 12:36:28 INDEX 01 12:43:52 TRACK 08 AUDIO TITLE "Stabat Mater (RV621) - 1. Stabat Mater dolorosa (Largo)" PERFORMER "Vivaldi" ISRC NLA508902154 INDEX 00 17:49:27 INDEX 01 17:55:15 TRACK 09 AUDIO TITLE "Stabat Mater (RV621) - 2. Cuius animam gementem (Adagissimo)" PERFORMER "Vivaldi" ISRC NLA508902155 INDEX 01 21:12:56 TRACK 10 AUDIO TITLE "Stabat Mater (RV621) - 3. O quam tristis et afflicta (Andante)" PERFORMER "Vivaldi" ISRC NLA508902156 INDEX 01 22:54:63 TRACK 11 AUDIO TITLE "Stabat Mater (RV621) - 4. Quis est homo (Largo)" PERFORMER "Vivaldi" ISRC NLA508902157 INDEX 01 24:55:26 TRACK 12 AUDIO TITLE "Stabat Mater (RV621) - 5. Quis non posset contristari (Adagissimo)" PERFORMER "Vivaldi" ISRC NLA508902158 INDEX 01 28:08:07 TRACK 13 AUDIO TITLE "Stabat Mater (RV621) - 6. Pro peccatis suae gentis (Andante)" PERFORMER "Vivaldi" ISRC NLA508902159 INDEX 01 29:41:50 TRACK 14 AUDIO TITLE "Stabat Mater (RV621) - 7. Eia Mater, fons amoris (Largo)" PERFORMER "Vivaldi" ISRC NLA508902160 INDEX 01 31:35:30 TRACK 15 AUDIO TITLE "Stabat Mater (RV621) - 8. Fac ut ardeat cor meum (Lento)" PERFORMER "Vivaldi" ISRC NLA508902161 INDEX 01 33:52:50 TRACK 16 AUDIO TITLE "Stabat Mater (RV621) - 9. Amen (Allegro)" PERFORMER "Vivaldi" ISRC NLA508902162 INDEX 01 35:54:30 TRACK 17 AUDIO TITLE "Confitebor tibi Domine (RV596) - 1. Confitebor (Allegro)" PERFORMER "Vivaldi" ISRC NLA508902116 INDEX 00 36:50:53 INDEX 01 36:58:65 TRACK 18 AUDIO TITLE "Confitebor tibi Domine (RV596) - 2. Memoriam fecit (Allegro)" PERFORMER "Vivaldi" ISRC NLA508902117 INDEX 01 39:41:71 TRACK 19 AUDIO TITLE "Confitebor tibi Domine (RV596) - 3. Sanctum et terribile nomen (Andante - And..." PERFORMER "Vivaldi" ISRC NLA508902118 INDEX 01 42:18:70 TRACK 20 AUDIO TITLE "Confitebor tibi Domine (RV596) - 4. Intellectus bonus omnibus (Allegro)" PERFORMER "Vivaldi" ISRC NLA508902119 INDEX 01 45:26:05 TRACK 21 AUDIO TITLE "Confitebor tibi Domine (RV596) - 5. Gloria Patri et Filio (Allegro)" PERFORMER "Vivaldi" ISRC NLA508902120 INDEX 01 47:03:54 TRACK 22 AUDIO TITLE "Confitebor tibi Domine (RV596) - 6. Et in saecula saeculorum - Amen (Allegro)" PERFORMER "Vivaldi" ISRC NLA508902121 INDEX 01 48:16:68 TRACK 23 AUDIO TITLE "Nisi Dominus (RV608) - 1. Nisi Dominus (Allegro)" PERFORMER "Vivaldi" ISRC NLA508902125 INDEX 00 49:25:65 INDEX 01 49:31:15 TRACK 24 AUDIO TITLE "Nisi Dominus (RV608) - 2. Vanum est vobis (Largo)" PERFORMER "Vivaldi" ISRC NLA508902126 INDEX 01 52:26:67 TRACK 25 AUDIO TITLE "Nisi Dominus (RV608) - 3. Surgite postquam sederitis (Presto)" PERFORMER "Vivaldi" ISRC NLA508902127 INDEX 01 53:31:09 TRACK 26 AUDIO TITLE "Nisi Dominus (RV608) - 4. Cum dederit delectis suis somnum (Largo)" PERFORMER "Vivaldi" ISRC NLA508902128 INDEX 01 54:52:35 TRACK 27 AUDIO TITLE "Nisi Dominus (RV608) - 5. Sicut sagittae in manu potentis (Allegro)" PERFORMER "Vivaldi" ISRC NLA508902129 INDEX 01 59:05:36 TRACK 28 AUDIO TITLE "Nisi Dominus (RV608) - 6. Beatus vir (Andante)" PERFORMER "Vivaldi" ISRC NLA508902130 INDEX 01 60:52:07 TRACK 29 AUDIO TITLE "Nisi Dominus (RV608) - 7. Gloria Patri (Larghetto)" PERFORMER "Vivaldi" ISRC NLA508902131 INDEX 01 61:55:27 TRACK 30 AUDIO TITLE "Nisi Dominus (RV608) - 8. Sicut erat in principio (Allegro)" PERFORMER "Vivaldi" ISRC NLA508902132 INDEX 01 66:19:33 TRACK 31 AUDIO TITLE "Nisi Dominus (RV608) - 9. Amen (Allegro)" PERFORMER "Vivaldi" ISRC NLA508902133 INDEX 01 67:28:45



Показать сообщения:    

Текущее время: 24-Янв 00:01

Часовой пояс: UTC + 3


Вы не можете начинать темы
Вы не можете отвечать на сообщения
Вы не можете редактировать свои сообщения
Вы не можете удалять свои сообщения
Вы не можете голосовать в опросах
Вы не можете прикреплять файлы к сообщениям
Вы не можете скачивать файлы