(Classical, 20th century) Benjamin Britten - The Canticles - Ben Johnson, James Baillieu, Christopher Ainslie, Benedict Nelson, Martin Owen, Lucy Wakeford - 2013, FLAC (image+.cue) lossless


 

[Цитировать]

Benjamin Britten - The Canticles - Ben Johnson, James Baillieu, Christopher Ainslie, Benedict Nelson, Martin Owen, Lucy Wakeford
Жанр: Classical, 20th century
Страна-производитель диска: UK
Год издания диска: 2013
Издатель (лейбл): Signum Records
Номер по каталогу: SIGCD317
Дата записи: 2012
Аудиокодек: FLAC
Тип рипа: image+.cue
Битрейт аудио: lossless
Продолжительность: 56:01
Источник: собственный рип
Наличие сканов в содержимом раздачи: да
Треклист:
Benjamin Britten
[1] Canticle I, Op.40 (1947) [8.04]
‘My beloved is mine’
for tenor and piano
[2] Canticle II, Op.51 (1952) [17.01]
‘Abraham and Isaac’
for tenor, countertenor and piano
[3] Canticle III, Op.55 (1954) [12.01]
‘Still Falls the Rain – the Raids, 1940, Night and Dawn’
for tenor, horn and piano
[4] Canticle IV, Op.86 (1971) [11.13]
‘The Journey of the Magi’
for tenor, countertenor, baritone and piano
[5] Canticle V, Op.89 (1974) [7.40]
‘The Death of Saint Narcissus’
for tenor and harp
Исполнители:
Ben Johnson tenor
James Baillieu piano
Christopher Ainslie countertenor
Benedict Nelson baritone
Martin Owen horn
Lucy Wakeford harp

Лог создания рипа

Exact Audio Copy V1.0 beta 3 from 29. August 2011
EAC extraction logfile from 18. July 2014, 14:30
Ben Johnson, James Baillieu / Britten - The Canticles
Used drive : HL-DT-STDVDRRW GWA-4164B Adapter: 5 ID: 0
Read mode : SecureUtilize accurate stream : YesDefeat audio cache : YesMake use of C2 pointers : No
Read offset correction : 102Overread into Lead-In and Lead-Out : NoFill up missing offset samples with silence : YesDelete leading and trailing silent blocks : NoNull samples used in CRC calculations : YesUsed interface : Native Win32 interface for Win NT & 2000
Used output format : User Defined EncoderSelected bitrate : 896 kBit/sQuality : HighAdd ID3 tag : NoCommand line compressor : C:\Program Files\Exact Audio Copy\FLAC\FLAC.EXEAdditional command line options : -V -8 %source%
TOC of the extracted CD
Track | Start | Length | Start sector | End sector --------------------------------------------------------- 1 | 0:00.00 | 8:03.64 | 0 | 36288 2 | 8:03.64 | 17:00.55 | 36289 | 112843 3 | 25:04.44 | 12:01.27 | 112844 | 166945 4 | 37:05.71 | 11:13.19 | 166946 | 217439 5 | 48:19.15 | 7:39.56 | 217440 | 251920
Range status and errors
Selected range
Filename D:\temp\Music\Britten - The Canticles\Britten - The Canticles.wav
Peak level 71.1 % Extraction speed 3.3 X Range quality 100.0 % Test CRC 57835A46 Copy CRC 57835A46 Copy OK
No errors occurred
AccurateRip summary
Track 1 not present in databaseTrack 2 not present in databaseTrack 3 not present in databaseTrack 4 not present in databaseTrack 5 not present in database
None of the tracks are present in the AccurateRip database
End of status report
==== Log checksum 2D634F53066B36FE5283EFC0EAA0EB22A84EEF71AE359533D6B4504F9836D6F1 ====



Показать сообщения:    

Текущее время: 07-Дек 17:30

Часовой пояс: UTC + 3


Вы не можете начинать темы
Вы не можете отвечать на сообщения
Вы не можете редактировать свои сообщения
Вы не можете удалять свои сообщения
Вы не можете голосовать в опросах
Вы не можете прикреплять файлы к сообщениям
Вы не можете скачивать файлы