(Classical) A Garland for Linda (A Commemoration of the Life of Linda McCartney) -J.Tavener, J.Bingham, J.Rutter, D.Matthews, P.McCartney, R.Panufnik, M.Berkeley, G.Swayne, R.Rodney Bennett - 2000, FLAC (image+.cue) lossless


 

[Цитировать]

A Garland for Linda (A Commemoration of the Life of Linda McCartney) - John Tavener, Judith Bingham, John Rutter, David Matthews, Paul McCartney, Roxanna Panufnik, Michael Berkeley, Giles Swayne, Richard Rodney Bennett.
Жанр: Classical
Страна-производитель диска: USA
Год издания диска: 2000
Издатель (лейбл): EMI
Номер по каталогу: 7243 5 56961 2 0
Дата записи: 1999
Аудиокодек: FLAC
Тип рипа: image+.cue
Битрейт аудио: lossless
Продолжительность: 00: 55:11
Источник: собственный рип
Наличие сканов в содержимом раздачи: да
Треклист:
[01] Silence and Music (Ralph Vaughan Williams) [04:50]
From A Garland for the Queen in 1953, the year of her coronation.
[02] Prayer for the Healing of the Sick (John Tavener) [08:53]
Featuring John Tavener. From text by Mother Thekla and taken from the Russian Orthodox Service of Holy Unction.
[03] Water Lilies (Judith Bingham) – [07:35]
Featuring Judith Bingham. Written in March 1999, drawing on the composer's experience of swimming.
[04] Musica Dei Donum (John Rutter) [05:36]
Featuring John Rutter. Taken from a solo chorus text from 1594.
[05] The Doorway of the Dawn (David Matthews) [0 4:53]
Featuring David Matthews. Write about Linda's qualities & feelings.
[06] Nova (Paul McCartney) [06:28]
Featuring Paul McCartney. Written from November 1998 to May 1999.
[07] I Dream'd (Roxanna Panufnik) [03:30]
Featuring Roxanna Panufnik. Arrangement for a cappella chorus of a work.
[08] Farewell (Michael Berkeley) [03:30]
Featuring Michael Berkeley. Taken from fragments of literary ideas from Milton, Shakespeare and Elizabeth Speller.
[09] The Flight of the Swan (Giles Swayne) [06:16]
Featuring Giles Swayne. Inspired by the death of James Manson in 1996 from brain cancer.
[10] A Good-Night (Richard Rodney Bennett) [02:51]
Featuring Richard Rodney Bennett. From a poem by Francis Quarles.
Исполнители:
The Joyful Company of Singers. Conducted by Peter Broadbent.
Original music by nine contemporary composers including Paul McCartney, John Rutter and John Tavener.

Лог создания рипа

Exact Audio Copy V1.0 beta 3 from 29. August 2011
EAC extraction logfile from 21. September 2014, 18:26
The Joyful Company of Singers - Conducted by Peter Broadbent / A Garland for Linda - A Commemoration of the Life of Linda McCartney
Used drive : ASUS SDRW-08D1S-U Adapter: 1 ID: 0
Read mode : SecureUtilize accurate stream : YesDefeat audio cache : YesMake use of C2 pointers : No
Read offset correction : 667Overread into Lead-In and Lead-Out : NoFill up missing offset samples with silence : YesDelete leading and trailing silent blocks : NoNull samples used in CRC calculations : YesUsed interface : Native Win32 interface for Win NT & 2000
Used output format : User Defined EncoderSelected bitrate : 128 kBit/sQuality : HighAdd ID3 tag : NoCommand line compressor : C:\Program Files (x86)\Exact Audio Copy\Flac\flac.exeAdditional command line options : -V -8 -T "Date=%year%" -T "Genre=%genre%" %source%
TOC of the extracted CD
Track | Start | Length | Start sector | End sector --------------------------------------------------------- 1 | 0:00.00 | 4:56.37 | 0 | 22236 2 | 4:56.37 | 8:53.25 | 22237 | 62236 3 | 13:49.62 | 7:40.33 | 62237 | 96769 4 | 21:30.20 | 5:41.45 | 96770 | 122389 5 | 27:11.65 | 5:00.22 | 122390 | 144911 6 | 32:12.12 | 6:34.05 | 144912 | 174466 7 | 38:46.17 | 3:36.30 | 174467 | 190696 8 | 42:22.47 | 3:36.55 | 190697 | 206951 9 | 45:59.27 | 6:22.40 | 206952 | 235641 10 | 52:21.67 | 2:53.35 | 235642 | 248651
Range status and errors
Selected range
Filename C:\Users\Олег\Desktop\The Joyful Company of Singers - Conducted by Peter Broadbent - A Garland for Linda - A Commemoration of the Life of Linda McCartney.wav
Peak level 99.6 % Extraction speed 3.9 X Range quality 99.9 % Test CRC 4C750BF6 Copy CRC 4C750BF6 Copy OK
No errors occurred
AccurateRip summary
Track 1 accurately ripped (confidence 1) [A6BD75C4] (AR v2)Track 2 accurately ripped (confidence 1) [C6444FCA] (AR v2)Track 3 accurately ripped (confidence 1) [1386FA8C] (AR v2)Track 4 accurately ripped (confidence 1) [1A956566] (AR v2)Track 5 accurately ripped (confidence 1) [7703EDE2] (AR v2)Track 6 accurately ripped (confidence 1) [054F389A] (AR v2)Track 7 accurately ripped (confidence 1) [B2C9C81C] (AR v2)Track 8 accurately ripped (confidence 1) [5C6B7905] (AR v2)Track 9 accurately ripped (confidence 1) [4A09DAD4] (AR v2)Track 10 accurately ripped (confidence 1) [2A5DD08E] (AR v2)
All tracks accurately ripped
End of status report
==== Log checksum C1A35EC62807BFDE8C22FA6C0692D5BB6336280A67946DDA00628781EC20063D ====

Содержание индексной карты (.CUE)

REM GENRE ClassicalREM DATE 2000REM DISCID 860CF30AREM COMMENT "ExactAudioCopy v1.0b3"PERFORMER "The Joyful Company of Singers - Conducted by Peter Broadbent"TITLE "A Garland for Linda - A Commemoration of the Life of Linda McCartney"FILE "The Joyful Company of Singers - Conducted by Peter Broadbent - A Garland for Linda - A Commemoration of the Life of Linda McCartney.flac" WAVE TRACK 01 AUDIO TITLE "Silence and Music" PERFORMER "The Joyful Company of Singers - Conducted by Peter Broadbent" INDEX 01 00:00:00 TRACK 02 AUDIO TITLE "Prayer for the Healing of the Sick" PERFORMER "The Joyful Company of Singers - Conducted by Peter Broadbent" INDEX 00 04:50:67 INDEX 01 04:56:37 TRACK 03 AUDIO TITLE "Water Lilies" PERFORMER "The Joyful Company of Singers - Conducted by Peter Broadbent" INDEX 00 13:42:02 INDEX 01 13:49:62 TRACK 04 AUDIO TITLE "Musica Dei Donum" PERFORMER "The Joyful Company of Singers - Conducted by Peter Broadbent" INDEX 00 21:24:50 INDEX 01 21:30:20 TRACK 05 AUDIO TITLE "The Doorway of the Dawn" PERFORMER "The Joyful Company of Singers - Conducted by Peter Broadbent" INDEX 00 27:06:70 INDEX 01 27:11:65 TRACK 06 AUDIO TITLE "Nova (arranged by John Harte)" PERFORMER "The Joyful Company of Singers - Conducted by Peter Broadbent" INDEX 00 32:05:30 INDEX 01 32:12:12 TRACK 07 AUDIO TITLE "I Dream'd" PERFORMER "The Joyful Company of Singers - Conducted by Peter Broadbent" INDEX 00 38:40:15 INDEX 01 38:46:17 TRACK 08 AUDIO TITLE "Farewell" PERFORMER "The Joyful Company of Singers - Conducted by Peter Broadbent" INDEX 00 42:16:42 INDEX 01 42:22:47 TRACK 09 AUDIO TITLE "The Flight of the Swan" PERFORMER "The Joyful Company of Singers - Conducted by Peter Broadbent" INDEX 00 45:52:62 INDEX 01 45:59:27 TRACK 10 AUDIO TITLE "A Good-Night" PERFORMER "The Joyful Company of Singers - Conducted by Peter Broadbent" INDEX 00 52:15:35 INDEX 01 52:21:67
Доп. информация: A Garland for Linda is a tribute album for Linda McCartney, released in 2000 by the cancer-fighting organization the Garland Appeal. The album features classical music by ten contemporary composers including Paul McCartney, John Rutter and John Tavener, recorded at All Saints Church, Tooting, London.



Показать сообщения:    

Текущее время: 05-Дек 21:37

Часовой пояс: UTC + 3


Вы не можете начинать темы
Вы не можете отвечать на сообщения
Вы не можете редактировать свои сообщения
Вы не можете удалять свои сообщения
Вы не можете голосовать в опросах
Вы не можете прикреплять файлы к сообщениям
Вы не можете скачивать файлы