(Classical) Franz Schubert - Winterreise - Gerald Finley, Julius Drake - 2014, FLAC (image+.cue) lossless


 

[Цитировать]

Franz Schubert - Winterreise - Gerald Finley, Julius Drake
Жанр: Classical
Страна-производитель диска: UK
Год издания диска: 2014
Издатель (лейбл): Hyperion
Номер по каталогу: CDA68034
Дата записи: 2013
Аудиокодек: FLAC
Тип рипа: image+.cue
Битрейт аудио: lossless
Продолжительность: 74:37
Источник: собственный рип
Наличие сканов в содержимом раздачи: да
Треклист:
Franz Schubert (1797-1828)
[1]-[24] Winterreise D911
Исполнители:
Gerald Finley baritone
Julius Drake piano

Лог создания рипа

Exact Audio Copy V1.0 beta 3 from 29. August 2011
EAC extraction logfile from 21. August 2014, 21:54
Gerald Finley, Julius Drake / Schubert - Winterreise, D911
Used drive : HL-DT-STDVDRAM GU70N Adapter: 0 ID: 0
Read mode : SecureUtilize accurate stream : YesDefeat audio cache : YesMake use of C2 pointers : No
Read offset correction : 48Overread into Lead-In and Lead-Out : NoFill up missing offset samples with silence : YesDelete leading and trailing silent blocks : NoNull samples used in CRC calculations : YesUsed interface : Native Win32 interface for Win NT & 2000
Used output format : User Defined EncoderSelected bitrate : 128 kBit/sQuality : HighAdd ID3 tag : NoCommand line compressor : C:\Program Files (x86)\Exact Audio Copy\Flac\flac.exeAdditional command line options : -V -8 -T "Date=%year%" -T "Genre=%genre%" %source%
TOC of the extracted CD
Track | Start | Length | Start sector | End sector --------------------------------------------------------- 1 | 0:00.00 | 5:50.37 | 0 | 26286 2 | 5:50.37 | 1:54.20 | 26287 | 34856 3 | 7:44.57 | 2:40.10 | 34857 | 46866 4 | 10:24.67 | 3:03.60 | 46867 | 60651 5 | 13:28.52 | 5:22.23 | 60652 | 84824 6 | 18:51.00 | 3:41.72 | 84825 | 101471 7 | 22:32.72 | 3:50.35 | 101472 | 118756 8 | 26:23.32 | 2:13.53 | 118757 | 128784 9 | 28:37.10 | 2:26.21 | 128785 | 139755 10 | 31:03.31 | 3:31.16 | 139756 | 155596 11 | 34:34.47 | 4:32.24 | 155597 | 176020 12 | 39:06.71 | 2:52.09 | 176021 | 188929 13 | 41:59.05 | 2:17.24 | 188930 | 199228 14 | 44:16.29 | 3:06.34 | 199229 | 213212 15 | 47:22.63 | 2:04.53 | 213213 | 222565 16 | 49:27.41 | 2:22.01 | 222566 | 233216 17 | 51:49.42 | 3:34.21 | 233217 | 249287 18 | 55:23.63 | 0:53.08 | 249288 | 253270 19 | 56:16.71 | 1:15.51 | 253271 | 258946 20 | 57:32.47 | 4:23.45 | 258947 | 278716 21 | 61:56.17 | 4:23.59 | 278717 | 298500 22 | 66:20.01 | 1:28.13 | 298501 | 305113 23 | 67:48.14 | 3:03.19 | 305114 | 318857 24 | 70:51.33 | 3:44.11 | 318858 | 335668
Range status and errors
Selected range
Filename C:\temp\CDA68034 - Schubert - Winterreise (Finley, Drake - HYPERION)\CD\Schubert - Winterreise.wav
Peak level 90.5 % Extraction speed 2.2 X Range quality 100.0 % Test CRC 4FEE41DA Copy CRC 4FEE41DA Copy OK
No errors occurred
AccurateRip summary
Track 1 not present in databaseTrack 2 not present in databaseTrack 3 not present in databaseTrack 4 not present in databaseTrack 5 not present in databaseTrack 6 not present in databaseTrack 7 not present in databaseTrack 8 not present in databaseTrack 9 not present in databaseTrack 10 not present in databaseTrack 11 not present in databaseTrack 12 not present in databaseTrack 13 not present in databaseTrack 14 not present in databaseTrack 15 not present in databaseTrack 16 not present in databaseTrack 17 not present in databaseTrack 18 not present in databaseTrack 19 not present in databaseTrack 20 not present in databaseTrack 21 not present in databaseTrack 22 not present in databaseTrack 23 not present in databaseTrack 24 not present in database
None of the tracks are present in the AccurateRip database
End of status report
==== Log checksum 04D4088D04A8512E917D44A9C37000E4399DE5D9C153322A909F51BBE90F524C ====



Показать сообщения:    

Текущее время: 10-Дек 00:22

Часовой пояс: UTC + 3


Вы не можете начинать темы
Вы не можете отвечать на сообщения
Вы не можете редактировать свои сообщения
Вы не можете удалять свои сообщения
Вы не можете голосовать в опросах
Вы не можете прикреплять файлы к сообщениям
Вы не можете скачивать файлы