(Early, Contemporary, Vocal) Vladimir Martynov (Владимир Мартынов) - Litania Ad Mariam Virginem (OPUS POSTH - Татьяна Гринденко, руководитель) - 2007, FLAC (tracks+.cue) lossless


 

[Цитировать]

Vladimir Martynov (Владимир Мартынов) - Litania Ad Mariam Virginem
Жанр: Early, Contemporary, Vocal
Страна-производитель диска: Russia
Год издания диска: 2007
Издатель (лейбл): Long Arms Records
Номер по каталогу: CDLA07023
Дата записи: Апрель 2004
Аудиокодек: FLAC
Тип рипа: tracks+.cue
Битрейт аудио: lossless
Продолжительность: 0:39:32.
Источник: собственный рип
Наличие сканов в содержимом раздачи: да
Треклист:
01. Kyrie Eleison [0:17:05.21]
02. Sancta Maria ora pro nobis [0:08:54.05]
03. Agnus dei [0:13:32.49]
Исполнители:
Татьяна Гринденко - руководитель проекта;
Галина Мурадова - голос;
Галина Жуковская - голос;
Людмила Топычканова - голос;
Ансамбль OPUS POSTH:
Татьяна Гринденко - руководитель проекта, скрипка;
Елена Полуянченко - скрипка;
Наталья Косырева - скрипка;
Людмила Егорова - скрипка;
Александр Иваненко - скрипка;
Владимир Метелев - альт;
Наталья Панасюк - альт;
Никита Кочергин - виолончель;
Игорь Солохин - контрабас.

Лог создания рипа

Exact Audio Copy V1.0 beta 3 from 29. August 2011
Отчёт EAC об извлечении, выполненном 11. сентября 2014, 0:13
Vladimir Martynov / Litania Ad Mariam Virginem
Дисковод: ASUS DRW-1814BLT Adapter: 4 ID: 0
Режим чтения : ДостоверностьИспользование точного потока : ДаОтключение кэша аудио : ДаИспользование указателей C2 : Нет
Коррекция смещения при чтении : 6Способность читать области Lead-in и Lead-out : НетЗаполнение пропущенных сэмплов тишиной : ДаУдаление блоков с тишиной в начале и конце : НетПри вычислениях CRC использовались нулевые сэмплы : ДаИнтерфейс : Встроенный Win32-интерфейс для Win NT/2000Обработка зазоров : Добавлено к предыдущему треку
Выходной формат : Пользовательский кодировщикВыбранный битрейт : 128 kBit/sКачество : ВысокийДобавление ID3-тега : НетУтилита сжатия : C:\Program Files\Exact Audio Copy\Flac\flac.exeДополнительные параметры : -V -8 -T "Genre=%genre%" -T "Artist=%artist%" -T "Title=%title%" -T "Album=%albumtitle%" -T "Date=%year%" -T "Tracknumber=%tracknr%" -T "Comment=EAC1.0b2 FLAC -8" %source%
TOC извлечённого CD
Трек | Старт | Длительность | Начальный сектор | Конечный сектор --------------------------------------------------------------------- 1 | 0:00.00 | 17:05.21 | 0 | 76895 2 | 17:05.21 | 8:54.05 | 76896 | 116950 3 | 25:59.26 | 13:32.49 | 116951 | 177899
Трек 1
Имя файла R:\Раздача 23\Vladimir Martynov - 2007 - Litania Ad Mariam Virginem\01 Kyrie Eleison.wav
Длина предзазора 0:00:02.00
Пиковый уровень 99.9 % Скорость извлечения 6.9 X Качество трека 100.0 % CRC теста 4351ED57 CRC копии 4351ED57 Точное извлечение (достоверность 2) [0DB72CEC] (AR v2) Копирование... OK
Трек 2
Имя файла R:\Раздача 23\Vladimir Martynov - 2007 - Litania Ad Mariam Virginem\02 Sancta Maria ora pro nobis.wav
Пиковый уровень 99.9 % Скорость извлечения 8.2 X Качество трека 100.0 % CRC теста E1DD41F4 CRC копии E1DD41F4 Точное извлечение (достоверность 2) [5649D4AD] (AR v2) Копирование... OK
Трек 3
Имя файла R:\Раздача 23\Vladimir Martynov - 2007 - Litania Ad Mariam Virginem\03 Agnus dei.wav
Пиковый уровень 99.1 % Скорость извлечения 9.5 X Качество трека 100.0 % CRC теста 0BFC5C95 CRC копии 0BFC5C95 Точное извлечение (достоверность 1) [33C36434] (AR v2) Копирование... OK
Все треки извлечены точно
Ошибок не произошло
Конец отчёта
==== Контрольная сумма отчёта A41D4B13DC9C3A0EDE59E93982289E2F47363C55E55A1A08407DD612502BA038 ====

Содержание индексной карты (.CUE)

REM GENRE ClassicalREM DATE 2007REM DISCID 19094403REM COMMENT "ExactAudioCopy v1.0b3"PERFORMER "Vladimir Martynov"TITLE " Litania Ad Mariam Virginem"FILE "01 Kyrie Eleison.wav" WAVE TRACK 01 AUDIO TITLE "Kyrie Eleison" PERFORMER "Vladimir Martynov" INDEX 01 00:00:00FILE "02 Sancta Maria ora pro nobis.wav" WAVE TRACK 02 AUDIO TITLE "Sancta Maria ora pro nobis" PERFORMER "Vladimir Martynov" INDEX 01 00:00:00FILE "03 Agnus dei.wav" WAVE TRACK 03 AUDIO TITLE "Agnus dei" PERFORMER "Vladimir Martynov" INDEX 01 00:00:00



Показать сообщения:    

Текущее время: 11-Дек 05:21

Часовой пояс: UTC + 3


Вы не можете начинать темы
Вы не можете отвечать на сообщения
Вы не можете редактировать свои сообщения
Вы не можете удалять свои сообщения
Вы не можете голосовать в опросах
Вы не можете прикреплять файлы к сообщениям
Вы не можете скачивать файлы