(Classical/Vocal) Morlacchi - Saffo in Leucade; La Rosa appassita; Lamento del Comte Ugolino; Odi d\'un uom che muore; sonetto di Dante (Zanardi, Zarrelli - In Canto Orchestra, Catalucci) - 2003, APE (image+.cue) lossless


 

[Цитировать]

Fancesco Morlacchi (1784-1841) - Saffo in Leucade * Lamento del conte Ugolino etc.
Жанр: Classical/Vocal
Страна-производитель диска: Italy
Год издания диска: 2003
Издатель (лейбл): Bongiovanni
Номер по каталогу: GB 2333-2
Дата записи: 2001-2002
Аудиокодек: APE
Тип рипа: image+.cue
Битрейт аудио: lossless
Продолжительность: 50'57
Источник: собственный рип
Наличие сканов в содержимом раздачи: да
Треклист/Исполнители:
1. Saffo in Leucade, lyric cantata
La Rosa appassita, 3 poems for voice and piano Work
2. Romanza 1
3. Romanza 2
4. Romanza 3
5. Odi d'un uom che muore, anacreonic for voice and piano Work
6. Lamento del conte Ugolino (Dante, Inferno XXXIII, vv.1-79), for voice and piano
7. Venite a intender, sonetto di Dante, for voice and piano
Patrizia Zanardi, Soprano
Gioacchino Zarrelli, Baritone
Orchestra e Complessa Vocale In Canto
Gabriele Catalucci, Conductor, Fortepiano

Лог создания рипа

Exact Audio Copy V1.0 beta 3 from 29. August 2011
EAC extraction logfile from 11. August 2014, 0:35
Morlacchi / Saffo in Leucade_La Rosa Appassita_Lamento Del Conte Ugolino etc.
Used drive : HL-DT-STDVDRAM GH22NS50 Adapter: 0 ID: 2
Read mode : SecureUtilize accurate stream : YesDefeat audio cache : YesMake use of C2 pointers : No
Read offset correction : 667Overread into Lead-In and Lead-Out : NoFill up missing offset samples with silence : YesDelete leading and trailing silent blocks : NoNull samples used in CRC calculations : YesUsed interface : Native Win32 interface for Win NT & 2000
Used output format : Monkey's Audio Lossless EncoderSelected bitrate : High Lossless CompressionQuality : HighAdd ID3 tag : NoCommand line compressor : C:\Program Files (x86)\Exact Audio Copy\MAC\MAC.exe
TOC of the extracted CD
Track | Start | Length | Start sector | End sector --------------------------------------------------------- 1 | 0:00.01 | 17:46.17 | 1 | 79967 2 | 17:46.18 | 4:19.40 | 79968 | 99432 3 | 22:05.58 | 3:37.50 | 99433 | 115757 4 | 25:43.33 | 3:21.54 | 115758 | 130886 5 | 29:05.12 | 2:40.03 | 130887 | 142889 6 | 31:45.15 | 16:35.42 | 142890 | 217556 7 | 48:20.57 | 2:36.23 | 217557 | 229279
Range status and errors
Selected range
Filename D:\EAC\Morlacchi - Saffo in Leucade_La Rosa Appassita_Lamento Del Conte Ugolino etc..wav
Peak level 100.0 % Extraction speed 2.0 X Range quality 99.9 % Test CRC D8BA2541 Copy CRC D8BA2541 Copy OK
No errors occurred
AccurateRip summary
Track 1 accurately ripped (confidence 1) [03249E1B] (AR v1)Track 2 accurately ripped (confidence 1) [5CDD8127] (AR v1)Track 3 accurately ripped (confidence 1) [7EBCE26E] (AR v1)Track 4 accurately ripped (confidence 1) [AD763778] (AR v1)Track 5 accurately ripped (confidence 1) [459A9ADC] (AR v1)Track 6 accurately ripped (confidence 1) [BA22A4A5] (AR v1)Track 7 accurately ripped (confidence 1) [94E1E7BB] (AR v1)
All tracks accurately ripped
End of status report
---- CUETools DB Plugin V2.1.3
[CTDB TOCID: QyiE_mHoLiZFZSAE.Arfdb20Pss-] disk not present in database, Submit result: discs with pregaps not supported in this protocol version
==== Log checksum 58FA0ED44022EF37D948FFFBD97929E10B3DBBBED7165FC4FD27404901792D93 ====

Содержание индексной карты (.CUE)

REM GENRE VocalREM DATE 2003REM DISCID 5E0BF107REM COMMENT "ExactAudioCopy v1.0b3"CATALOG 0000000000000PERFORMER "Morlacchi"TITLE "Saffo in Leucade_La Rosa Appassita_Lamento Del Conte Ugolino etc."FILE "Morlacchi - Saffo in Leucade_La Rosa Appassita_Lamento Del Conte Ugolino etc..ape" WAVE TRACK 01 AUDIO TITLE "Saffo in Leucade" PERFORMER "Morlacchi" ISRC 000000000000 FLAGS DCP INDEX 00 00:00:00 INDEX 01 00:00:01 TRACK 02 AUDIO TITLE "La Rosa Appassita, Romanza 1" PERFORMER "Morlacchi" ISRC 000000000000 FLAGS DCP INDEX 01 17:46:18 TRACK 03 AUDIO TITLE "La Rosa Appassita, Romanza 2" PERFORMER "Morlacchi" ISRC 000000000000 FLAGS DCP INDEX 01 22:05:58 TRACK 04 AUDIO TITLE "La Rosa Appassita, Romanza 3" PERFORMER "Morlacchi" ISRC 000000000000 FLAGS DCP INDEX 01 25:43:33 TRACK 05 AUDIO TITLE "Anacreontica Odi D'Un Uom Che Muore" PERFORMER "Morlacchi" ISRC 000000000000 FLAGS DCP INDEX 01 29:05:12 TRACK 06 AUDIO TITLE "Lamento Del Conte Ugolino" PERFORMER "Morlacchi" ISRC 000000000000 FLAGS DCP INDEX 01 31:45:15 TRACK 07 AUDIO TITLE "Sonetta di Dante Venite A Intender" PERFORMER "Morlacchi" ISRC 000000000000 FLAGS DCP INDEX 01 48:20:57



Показать сообщения:    

Текущее время: 10-Дек 21:38

Часовой пояс: UTC + 3


Вы не можете начинать темы
Вы не можете отвечать на сообщения
Вы не можете редактировать свои сообщения
Вы не можете удалять свои сообщения
Вы не можете голосовать в опросах
Вы не можете прикреплять файлы к сообщениям
Вы не можете скачивать файлы