(Classical) Claudio Monteverdi - Ballo delle ingrate; Combatimento di Tancredi et Clorinda - Ensemble Symphonia Perusina, Sandro Volta - 2004, FLAC (image+.cue) lossless


 

[Цитировать]

Claudio Monteverdi - Ballo delle ingrate; Combatimento di Tancredi et Clorinda - Ensemble Symphonia Perusina, Sandro Volta
Жанр: Classical
Страна-производитель диска: Italy
Год издания диска: 2004
Издатель (лейбл): Tactus
Номер по каталогу: TC 561308
Дата записи: 2003
Аудиокодек: FLAC
Тип рипа: image+.cue
Битрейт аудио: lossless
Продолжительность: 58:01
Источник: собственный рип
Наличие сканов в содержимом раздачи: да
Треклист:
Claudio Monteverdi (1567-1643)
[1]-[8] Ballo delle ingrate
[9] Combatimento di Tancredi et Clorinda
Исполнители:
Ensemble Symphonia Perusina
Sandro Volta

Лог создания рипа

Exact Audio Copy V1.0 beta 3 from 29. August 2011
EAC extraction logfile from 20. August 2014, 20:49
Ensemble Symphonia Perusina, Sandro Volta / Monteverdi - Ballo delle ingrate
Used drive : HL-DT-STDVDRAM GU70N Adapter: 0 ID: 0
Read mode : SecureUtilize accurate stream : YesDefeat audio cache : YesMake use of C2 pointers : No
Read offset correction : 48Overread into Lead-In and Lead-Out : NoFill up missing offset samples with silence : YesDelete leading and trailing silent blocks : NoNull samples used in CRC calculations : YesUsed interface : Native Win32 interface for Win NT & 2000
Used output format : User Defined EncoderSelected bitrate : 128 kBit/sQuality : HighAdd ID3 tag : NoCommand line compressor : C:\Program Files (x86)\Exact Audio Copy\Flac\flac.exeAdditional command line options : -V -8 -T "Date=%year%" -T "Genre=%genre%" %source%
TOC of the extracted CD
Track | Start | Length | Start sector | End sector --------------------------------------------------------- 1 | 0:00.00 | 3:10.06 | 0 | 14255 2 | 3:10.06 | 2:27.34 | 14256 | 25314 3 | 5:37.40 | 5:52.52 | 25315 | 51766 4 | 11:30.17 | 6:39.33 | 51767 | 81724 5 | 18:09.50 | 2:00.53 | 81725 | 90777 6 | 20:10.28 | 2:59.53 | 90778 | 104255 7 | 23:10.06 | 9:52.47 | 104256 | 148702 8 | 33:02.53 | 4:10.26 | 148703 | 167478 9 | 37:13.04 | 20:27.31 | 167479 | 259534
Range status and errors
Selected range
Filename C:\temp\Monteverdi - Ballo delle ingrate\Monteverdi - Ballo delle ingrate.wav
Peak level 95.2 % Extraction speed 2.0 X Range quality 100.0 % Test CRC C65E974C Copy CRC C65E974C Copy OK
No errors occurred
AccurateRip summary
Track 1 accurately ripped (confidence 2) [D91E28C5] (AR v2)Track 2 accurately ripped (confidence 2) [978E7117] (AR v2)Track 3 accurately ripped (confidence 2) [7FFE703B] (AR v2)Track 4 accurately ripped (confidence 2) [3DD9CF87] (AR v2)Track 5 accurately ripped (confidence 2) [6044D1CC] (AR v2)Track 6 accurately ripped (confidence 2) [2242CFB2] (AR v2)Track 7 accurately ripped (confidence 2) [2498B724] (AR v2)Track 8 accurately ripped (confidence 2) [5717B4D9] (AR v2)Track 9 accurately ripped (confidence 2) [7FBE2496] (AR v2)
All tracks accurately ripped
End of status report
==== Log checksum FF70C72B13E3A2D408498BDE6E17C51B34F720A7977D2A13B2FAA0B461C1F728 ====



Показать сообщения:    

Текущее время: 09-Дек 20:28

Часовой пояс: UTC + 3


Вы не можете начинать темы
Вы не можете отвечать на сообщения
Вы не можете редактировать свои сообщения
Вы не можете удалять свои сообщения
Вы не можете голосовать в опросах
Вы не можете прикреплять файлы к сообщениям
Вы не можете скачивать файлы