(Classical) Claudio Monteverdi - Varie Musiche Sacre a una e due voci - Ensemble "Concerto", Roberto Gini - 2004, FLAC (image+.cue) lossless


 

[Цитировать]

Claudio Monteverdi - Varie Musiche Sacre a una e due voci - Ensemble "Concerto", Roberto Gini
Жанр: Classical
Страна-производитель диска: Italy
Год издания диска: 2004
Издатель (лейбл): Tactus
Номер по каталогу: TC 561304
Дата записи: 1990
Аудиокодек: FLAC
Тип рипа: image+.cue
Битрейт аудио: lossless
Продолжительность: 1:01:08
Источник: собственный рип
Наличие сканов в содержимом раздачи: да
Треклист:
Claudio Monteverdi (1567-1643)
[1] Giovanni Gabrieli: Intonazione del Settimo Tono
[2] Ecce sacrum paratum convivium
[3] Salve, o Regina
[4] Giovanni Gabrieli: Intonazione del Nono Tono
[5] Ego dormio, et cor meum vigilat
[6] O quam pulchra es, amica mea
[7] Ego flos campi
[8] Andrea Gabrieli: Intonazione del Primo Tono
[9] Laudate Dominum, omnes gentes
[10] Salve, Regina
[11] Andrea Gabrieli: Intonazione del Settimo Tono
[12] Currite, populi, psallite tympanis
[13] Venite, videte
[14] Giovanni Gabrieli: Intonazione dell'OttavoTono
[15] Exulta, filia Sion
[16] Giovanni Gabrieli: Intonazione del Secondo Tono
[17] Cantate Domino canticum novum
Исполнители:
Ensemble "Concerto"
Roberto Gini

Лог создания рипа

Exact Audio Copy V1.0 beta 3 from 29. August 2011
EAC extraction logfile from 20. August 2014, 1:49
Ensemble Concerto, Roberto Gini / Monteverdi - Varie Musiche Sacre a une e due voci
Used drive : HL-DT-STDVDRAM GU70N Adapter: 0 ID: 0
Read mode : SecureUtilize accurate stream : YesDefeat audio cache : YesMake use of C2 pointers : No
Read offset correction : 48Overread into Lead-In and Lead-Out : NoFill up missing offset samples with silence : YesDelete leading and trailing silent blocks : NoNull samples used in CRC calculations : YesUsed interface : Native Win32 interface for Win NT & 2000
Used output format : User Defined EncoderSelected bitrate : 128 kBit/sQuality : HighAdd ID3 tag : NoCommand line compressor : C:\Program Files (x86)\Exact Audio Copy\Flac\flac.exeAdditional command line options : -V -8 -T "Date=%year%" -T "Genre=%genre%" %source%
TOC of the extracted CD
Track | Start | Length | Start sector | End sector --------------------------------------------------------- 1 | 0:00.00 | 0:35.08 | 0 | 2632 2 | 0:35.08 | 5:47.52 | 2633 | 28709 3 | 6:22.60 | 5:36.28 | 28710 | 53937 4 | 11:59.13 | 0:38.55 | 53938 | 56842 5 | 12:37.68 | 3:23.00 | 56843 | 72067 6 | 16:00.68 | 5:47.40 | 72068 | 98132 7 | 21:48.33 | 3:59.72 | 98133 | 116129 8 | 25:48.30 | 1:10.33 | 116130 | 121412 9 | 26:58.63 | 3:07.12 | 121413 | 135449 10 | 30:06.00 | 5:47.03 | 135450 | 161477 11 | 35:53.03 | 1:21.07 | 161478 | 167559 12 | 37:14.10 | 3:43.03 | 167560 | 184287 13 | 40:57.13 | 7:06.55 | 184288 | 216292 14 | 48:03.68 | 0:30.50 | 216293 | 218592 15 | 48:34.43 | 6:21.16 | 218593 | 247183 16 | 54:55.59 | 0:25.54 | 247184 | 249112 17 | 55:21.38 | 5:50.22 | 249113 | 275384
Range status and errors
Selected range
Filename C:\temp\Monteverdi - Varie Musiche Sacre a une e due voci\Monteverdi - Varie Musiche Sacre a une e due voci.wav
Peak level 86.9 % Extraction speed 2.1 X Range quality 100.0 % Test CRC C366B3C3 Copy CRC C366B3C3 Copy OK
No errors occurred
AccurateRip summary
Track 1 accurately ripped (confidence 2) [623608D5] (AR v2)Track 2 accurately ripped (confidence 2) [4BB111E4] (AR v2)Track 3 accurately ripped (confidence 2) [4331AC16] (AR v2)Track 4 accurately ripped (confidence 2) [66D426E6] (AR v2)Track 5 accurately ripped (confidence 2) [260E6F18] (AR v2)Track 6 accurately ripped (confidence 2) [D05C992C] (AR v2)Track 7 accurately ripped (confidence 2) [FD0668D9] (AR v2)Track 8 accurately ripped (confidence 2) [50160D51] (AR v2)Track 9 accurately ripped (confidence 2) [1959D778] (AR v2)Track 10 accurately ripped (confidence 2) [5065E6E2] (AR v2)Track 11 accurately ripped (confidence 2) [CECD07DB] (AR v2)Track 12 accurately ripped (confidence 2) [45030D14] (AR v2)Track 13 accurately ripped (confidence 2) [A67B0883] (AR v2)Track 14 accurately ripped (confidence 2) [48F8C37D] (AR v2)Track 15 accurately ripped (confidence 2) [00846522] (AR v2)Track 16 accurately ripped (confidence 2) [780831AF] (AR v2)Track 17 accurately ripped (confidence 2) [8755C7DF] (AR v2)
All tracks accurately ripped
End of status report
==== Log checksum D2C1F7D5F0D09CC2B7B581E68C58A9355B7F5FFC6FFC22C3E23782E3E9475766 ====



Показать сообщения:    

Текущее время: 18-Янв 02:34

Часовой пояс: UTC + 3


Вы не можете начинать темы
Вы не можете отвечать на сообщения
Вы не можете редактировать свои сообщения
Вы не можете удалять свои сообщения
Вы не можете голосовать в опросах
Вы не можете прикреплять файлы к сообщениям
Вы не можете скачивать файлы