(Opera, Vocal) Khibla Gerzmava - Russian Romances (Чайковский, Римский-Корсаков, Рахманинов)/Хибла Герзмава - Русские романсы, 2002, APE (image+.cue) lossless


 

[Цитировать]

Khibla Gerzmava - Russian Romances
Хибла Герзмава - Русские романсы
(Чайковский, Римский-Корсаков, Рахманинов)

Жанр: Opera, Vocal
Страна-производитель диска: Россия
Год издания диска: 2002
Аудиокодек: FLAC
Тип рипа: image+.cue
Битрейт аудио: lossless
Продолжительность: 0:45:15
Источник: собственный рип
Наличие сканов в содержимом раздачи: да
Треклист:
01. Колыбельная (П.И.Чайковский - А.Майков) [0:04:00.37]
02. Ты куда летишь как птица (П.И.Чайковский - Э.Тюркети, А.Горчакова) [0:01:54.03]
03. Скажи,о чем в тени ветвей (П.И.Чайковский - В.Соллогуб) [0:03:38.15]
04. То было раннею весной (П.И.Чайковски - А.К.Толстой) [0:02:39.55]
05. Кукушка (П.И.Чайковский - А.Плещеев) [0:02:39.00]
06. Серенада ('О, дитя!..') (П.И.Чайковский - К.Романов) [0:03:01.15]
07. На холмах Грузии (Н.А.Римский-Корсаков - А.С.Пушкин) [0:02:07.00]
08. Не ветер, вея с высоты (Н.А.Римский-Корсаков - А.К.Толстой) [0:01:53.72]
09. Редеет облаков летучая гряда (Н.А.Римский-Корсаков - А.С.Пушкин) [0:03:09.60]
10. Звонче жаворонка пенье (Н.А.Римский-Корсаков - А.К.Толстой) [0:01:12.08]
11. Хибла Герзмава - Здесь хорошо (С.В.Рахманинов - Г.Галина) [0:02:01.07]
12. Дитя! Как цветок, ты прекрасна (С.В.Рахманинов - Г.Гейне, А.Плещеев) [0:01:55.58]
13. Сумерки (С.В.Рахманинов - М.Гюйо) [0:01:49.32]
14. Сон (С.В.Рахманинов - Г.Гейне, А.Плещеев) [0:01:43.43]
15. Сирень (С.В.Рахманинов - Е.Бекетова) [0:02:00.07]
16. Ветер перелетных (С.В.Рахманинов - К.Д.Бальмонт) [0:02:58.73]
17. У моего окна (С.В.Рахманинов - Г.Галина) [0:02:05.72]
18. Смеркалось (С.В.Рахманинов - А.К.Толстой) [0:02:34.15]
19. Оне отвечали (С.В.Рахманинов - В.Гюго, Л.Мей) [0:01:51.18]
Исполнители:
Хибла Герзмава (сопрано)

Лог создания рипа

Exact Audio Copy V1.0 beta 3 from 29. August 2011
Отчёт EAC об извлечении, выполненном 16. августа 2014, 11:40
Хибла Герзмава / Русские романсы
Дисковод: _NEC DV-5800C Adapter: 1 ID: 0
Режим чтения : ДостоверностьИспользование точного потока : ДаОтключение кэша аудио : ДаИспользование указателей C2 : Нет
Коррекция смещения при чтении : 12Способность читать области Lead-in и Lead-out : НетЗаполнение пропущенных сэмплов тишиной : ДаУдаление блоков с тишиной в начале и конце : НетПри вычислениях CRC использовались нулевые сэмплы : ДаИнтерфейс : Встроенный Win32-интерфейс для Win NT/2000
Выходной формат : Пользовательский кодировщикВыбранный битрейт : 128 kBit/sКачество : ВысокийДобавление ID3-тега : НетУтилита сжатия : D:\Program Files\Monkey's Audio\MAC.exeДополнительные параметры : %source% %dest% -c3000
TOC извлечённого CD
Трек | Старт | Длительность | Начальный сектор | Конечный сектор --------------------------------------------------------------------- 1 | 0:00.00 | 4:00.37 | 0 | 18036 2 | 4:00.37 | 1:54.03 | 18037 | 26589 3 | 5:54.40 | 3:38.15 | 26590 | 42954 4 | 9:32.55 | 2:39.55 | 42955 | 54934 5 | 12:12.35 | 2:39.00 | 54935 | 66859 6 | 14:51.35 | 3:01.15 | 66860 | 80449 7 | 17:52.50 | 2:07.00 | 80450 | 89974 8 | 19:59.50 | 1:53.72 | 89975 | 98521 9 | 21:53.47 | 3:09.60 | 98522 | 112756 10 | 25:03.32 | 1:12.08 | 112757 | 118164 11 | 26:15.40 | 2:01.07 | 118165 | 127246 12 | 28:16.47 | 1:55.58 | 127247 | 135929 13 | 30:12.30 | 1:49.32 | 135930 | 144136 14 | 32:01.62 | 1:43.43 | 144137 | 151904 15 | 33:45.30 | 2:00.07 | 151905 | 160911 16 | 35:45.37 | 2:58.73 | 160912 | 174334 17 | 38:44.35 | 2:05.72 | 174335 | 183781 18 | 40:50.32 | 2:34.15 | 183782 | 195346 19 | 43:24.47 | 1:51.18 | 195347 | 203689
Характеристики диапазона извлечения и сообщения об ошибках
Выбранный диапазон
Имя файла F:\Хибла Герзмава - 2002 Русские романсы\Хибла Герзмава - Русские романсы.wav
Пиковый уровень 91.1 % Скорость извлечения 4.3 X Качество диапазона 100.0 % CRC теста 23839793 CRC копии 23839793 Копирование... OK
Ошибок не произошло
AccurateRip: сводка
Трек 1 отсутствует в базе данныхТрек 2 отсутствует в базе данныхТрек 3 отсутствует в базе данныхТрек 4 отсутствует в базе данныхТрек 5 отсутствует в базе данныхТрек 6 отсутствует в базе данныхТрек 7 отсутствует в базе данныхТрек 8 отсутствует в базе данныхТрек 9 отсутствует в базе данныхТрек 10 отсутствует в базе данныхТрек 11 отсутствует в базе данныхТрек 12 отсутствует в базе данныхТрек 13 отсутствует в базе данныхТрек 14 отсутствует в базе данныхТрек 15 отсутствует в базе данныхТрек 16 отсутствует в базе данныхТрек 17 отсутствует в базе данныхТрек 18 отсутствует в базе данныхТрек 19 отсутствует в базе данных
Ни одного трека нет в базе AccurateRip
Конец отчёта
==== Контрольная сумма отчёта 86F7C5A334DBC5648C3611BDB61D903BA27504012421B84A48512558600CBF70 ====

Содержание индексной карты (.CUE)

REM GENRE ClassicalREM DATE 2002REM DISCID F90A9B13REM COMMENT "ExactAudioCopy v1.0b3"PERFORMER "Хибла Герзмава"TITLE "Русские романсы"FILE "Хибла Герзмава - Русские романсы.ape" WAVE TRACK 01 AUDIO TITLE "Колыбельная (П.И.Чайковский - А.Майков)" PERFORMER "Хибла Герзмава" INDEX 01 00:00:00 TRACK 02 AUDIO TITLE "Ты куда летишь как птица (П.И.Чайковский - Э.Тюркети, А.Горчакова)" PERFORMER "Хибла Герзмава" INDEX 01 04:00:37 TRACK 03 AUDIO TITLE "Скажи,о чем в тени ветвей (П.И.Чайковский - В.Соллогуб)" PERFORMER "Хибла Герзмава" INDEX 01 05:54:40 TRACK 04 AUDIO TITLE "То было раннею весной (П.И.Чайковски - А.К.Толстой)" PERFORMER "Хибла Герзмава" INDEX 01 09:32:55 TRACK 05 AUDIO TITLE "Кукушка (П.И.Чайковский - А.Плещеев)" PERFORMER "Хибла Герзмава" INDEX 01 12:12:35 TRACK 06 AUDIO TITLE "Серенада ('О, дитя!..') (П.И.Чайковский - К.Романов)" PERFORMER "Хибла Герзмава" INDEX 01 14:51:35 TRACK 07 AUDIO TITLE "На холмах Грузии (Н.А.Римский-Корсаков - А.С.Пушкин)" PERFORMER "Хибла Герзмава" INDEX 01 17:52:50 TRACK 08 AUDIO TITLE "Не ветер, вея с высоты (Н.А.Римский-Корсаков - А.К.Толстой)" PERFORMER "Хибла Герзмава" INDEX 01 19:59:50 TRACK 09 AUDIO TITLE "Редеет облаков летучая гряда (Н.А.Римский-Корсаков - А.С.Пушкин)" PERFORMER "Хибла Герзмава" INDEX 01 21:53:47 TRACK 10 AUDIO TITLE "Звонче жаворонка пенье (Н.А.Римский-Корсаков - А.К.Толстой)" PERFORMER "Хибла Герзмава" INDEX 01 25:03:32 TRACK 11 AUDIO TITLE "Хибла Герзмава - Здесь хорошо (С.В.Рахманинов - Г.Галина)" PERFORMER "Хибла Герзмава" INDEX 01 26:15:40 TRACK 12 AUDIO TITLE "Дитя! Как цветок, ты прекрасна (С.В.Рахманинов - Г.Гейне, А.Плещеев)" PERFORMER "Хибла Герзмава" INDEX 01 28:16:47 TRACK 13 AUDIO TITLE "Сумерки (С.В.Рахманинов - М.Гюйо)" PERFORMER "Хибла Герзмава" INDEX 01 30:12:30 TRACK 14 AUDIO TITLE "Сон (С.В.Рахманинов - Г.Гейне, А.Плещеев)" PERFORMER "Хибла Герзмава" INDEX 01 32:01:62 TRACK 15 AUDIO TITLE "Сирень (С.В.Рахманинов - Е.Бекетова)" PERFORMER "Хибла Герзмава" INDEX 01 33:45:30 TRACK 16 AUDIO TITLE "Ветер перелетных (С.В.Рахманинов - К.Д.Бальмонт)" PERFORMER "Хибла Герзмава" INDEX 01 35:45:37 TRACK 17 AUDIO TITLE "У моего окна (С.В.Рахманинов - Г.Галина)" PERFORMER "Хибла Герзмава" INDEX 01 38:44:35 TRACK 18 AUDIO TITLE "Смеркалось (С.В.Рахманинов - А.К.Толстой)" PERFORMER "Хибла Герзмава" INDEX 01 40:50:32 TRACK 19 AUDIO TITLE "Оне отвечали (С.В.Рахманинов - В.Гюго, Л.Мей)" PERFORMER "Хибла Герзмава" INDEX 01 43:24:47



Показать сообщения:    

Текущее время: 24-Янв 00:02

Часовой пояс: UTC + 3


Вы не можете начинать темы
Вы не можете отвечать на сообщения
Вы не можете редактировать свои сообщения
Вы не можете удалять свои сообщения
Вы не можете голосовать в опросах
Вы не можете прикреплять файлы к сообщениям
Вы не можете скачивать файлы