(Classical) Дмитрий Шостакович - Шесть романсов на стихи британских поэтов; Сюита на слова Микеланджело Буонарроти - Gerald Finley, Helsinki PO, Thomas Sanderling - 2014, FLAC (image+.cue) lossless


 

[Цитировать]

Дмитрий Шостакович - Шесть романсов на стихи британских поэтов; Сюита на слова Микеланджело Буонарроти - Gerald Finley, Helsinki PO, Thomas Sanderling
Жанр: Classical
Страна-производитель диска: Finland
Год издания диска: 2014
Издатель (лейбл): Ondine
Номер по каталогу: ODE 1235-2
Дата записи: 2013
Аудиокодек: FLAC
Тип рипа: image+.cue
Битрейт аудио: lossless
Продолжительность: 62:00
Источник: собственный рип
Наличие сканов в содержимом раздачи: да
Треклист:
Дмитрий Шостакович (1906-1975)
[1]-[6] Шесть романсов на стихи британских поэтов, соч. 62a (1942)
(оркестровая версия)
[7] Annie Laurie, Scottish Ballad (1944)
(оркестровка Шостаковича)
[8]-[18] Сюита на слова Микеланджело Буонарроти, соч. 145a (1974)
(оркестровая версия, исполняется по-итальянски)
Исполнители:
Gerald Finley bass-baritone
Helsinki Philharmonic Orchestra
Thomas Sanderling
conductor

Лог создания рипа

Exact Audio Copy V1.0 beta 3 from 29. August 2011
EAC extraction logfile from 18. June 2014, 17:37
Gerald Finley, Helsinki Philharmonic Orchestra, Thomas Sanderling / Shostakovich - Six Romances; Scottish Ballad; Michelangelo Suite
Used drive : HL-DT-STDVDRRW GWA-4164B Adapter: 5 ID: 0
Read mode : SecureUtilize accurate stream : YesDefeat audio cache : YesMake use of C2 pointers : No
Read offset correction : 102Overread into Lead-In and Lead-Out : NoFill up missing offset samples with silence : YesDelete leading and trailing silent blocks : NoNull samples used in CRC calculations : YesUsed interface : Native Win32 interface for Win NT & 2000
Used output format : User Defined EncoderSelected bitrate : 896 kBit/sQuality : HighAdd ID3 tag : NoCommand line compressor : C:\Program Files\Exact Audio Copy\FLAC\FLAC.EXEAdditional command line options : -V -8 %source%
TOC of the extracted CD
Track | Start | Length | Start sector | End sector --------------------------------------------------------- 1 | 0:00.00 | 4:14.42 | 0 | 19091 2 | 4:14.42 | 2:32.38 | 19092 | 30529 3 | 6:47.05 | 2:16.02 | 30530 | 40731 4 | 9:03.07 | 1:41.67 | 40732 | 48373 5 | 10:44.74 | 3:27.25 | 48374 | 63923 6 | 14:12.24 | 0:55.40 | 63924 | 68088 7 | 15:07.64 | 3:16.47 | 68089 | 82835 8 | 18:24.36 | 4:53.51 | 82836 | 104861 9 | 23:18.12 | 2:50.40 | 104862 | 117651 10 | 26:08.52 | 4:19.70 | 117652 | 137146 11 | 30:28.47 | 2:45.31 | 137147 | 149552 12 | 33:14.03 | 1:49.69 | 149553 | 157796 13 | 35:03.72 | 3:20.67 | 157797 | 172863 14 | 38:24.64 | 5:52.23 | 172864 | 199286 15 | 44:17.12 | 3:12.08 | 199287 | 213694 16 | 47:29.20 | 4:49.67 | 213695 | 235436 17 | 52:19.12 | 5:20.64 | 235437 | 259500 18 | 57:40.01 | 4:18.46 | 259501 | 278896
Range status and errors
Selected range
Filename D:\temp\Music\Shostakovich - Six Romances; Scottish Ballad; Michelangelo Suite\Shostakovich - Six Romances; Scottish Ballad; Michelangelo Suite.wav
Peak level 98.2 % Extraction speed 2.9 X Range quality 100.0 % Test CRC 87834876 Copy CRC 87834876 Copy OK
No errors occurred
AccurateRip summary
Track 1 accurately ripped (confidence 1) [49C14A3D] (AR v2)Track 2 accurately ripped (confidence 1) [33606E65] (AR v2)Track 3 accurately ripped (confidence 1) [B9D5A54F] (AR v2)Track 4 accurately ripped (confidence 1) [95663625] (AR v2)Track 5 accurately ripped (confidence 1) [0E7FC1F8] (AR v2)Track 6 accurately ripped (confidence 1) [2F308AAA] (AR v2)Track 7 accurately ripped (confidence 1) [BE91C9A4] (AR v2)Track 8 accurately ripped (confidence 1) [55613F86] (AR v2)Track 9 accurately ripped (confidence 1) [2971BEB9] (AR v2)Track 10 accurately ripped (confidence 1) [AD0730FA] (AR v2)Track 11 accurately ripped (confidence 1) [82012340] (AR v2)Track 12 accurately ripped (confidence 1) [330CD7B4] (AR v2)Track 13 accurately ripped (confidence 1) [218D301C] (AR v2)Track 14 accurately ripped (confidence 1) [F8EC8DD4] (AR v2)Track 15 accurately ripped (confidence 1) [62FA6F52] (AR v2)Track 16 accurately ripped (confidence 1) [8E9F1AC8] (AR v2)Track 17 accurately ripped (confidence 1) [42108338] (AR v2)Track 18 accurately ripped (confidence 1) [DC440489] (AR v2)
All tracks accurately ripped
End of status report
==== Log checksum 8938D4F4C8ED32E62CFEFB74D4BE69C36C74AFBE1FAE0A2D19D1ED2E091DA732 ====



Показать сообщения:    

Текущее время: 06-Дек 22:57

Часовой пояс: UTC + 3


Вы не можете начинать темы
Вы не можете отвечать на сообщения
Вы не можете редактировать свои сообщения
Вы не можете удалять свои сообщения
Вы не можете голосовать в опросах
Вы не можете прикреплять файлы к сообщениям
Вы не можете скачивать файлы