(Classical) Robert White, Samuel Sanders - Sure On This Shining Night (Friml, Barber, Malotte, Chanler, Chadwick, Schuman, Ives, Corigliano, Thomson, Korngold, Hindemith, Firestone, Ives, Copland, Ewazen, Bolcom..) - 1997, FLAC (tracks+.cue) lossless


 

[Цитировать]

Robert White, Samuel Sanders - Sure On This Shining Night (Friml, Barber, Malotte, Chanler, Chadwick, Schuman, Ives, Corigliano, Thomson, Korngold, Hindemith, Firestone, Ives, Copland, Ewazen, Bolcom, Rorem, Romberg, Hageman, Marder, Charles, Griffes, Herbert, Parker, Musto, Beach)
Жанр: Classical
Год издания диска: 1997
Издатель (лейбл): Hyperion
Номер по каталогу: CDA68025
Дата записи:
Аудиокодек: FLAC
Тип рипа: tracks+.cue
Битрейт аудио: lossless
Продолжительность: 62:27
Источник: скачано из сети
Наличие сканов в содержимом раздачи: да
Исполнители:
Samuel Sanders (Piano),
Robert White (Tenor)

Треклист:

Rudolf Friml
1. Rose Marie
Written: 1924; USA
Samuel Barber
2. Songs (4), Op. 13: no 3, Sure on this Shining Night
Written: 1938; USA
Albert Hay Malotte
3. (The) Lord's Prayer by
Written: 1935; USA
Theodore Chanler
4. The Children
Written: 1945; USA
George W. Chadwick
5. When Stars are in the Quiet Skies
William Schuman
6. Orpheus and his Lute
Written: 1944; USA
Charles Ives
7. The Side-show
Written: 1921; USA
John Corigliano
8. The Cloisters: Song to the Witch of the Cloisters
Written: 1965; USA
Virgil Thomson
9. Shakespeare Songs (5): no 5, Sigh no more, ladies
Written: 1957; USA
Erich Wolfgang Korngold
10. Songs of the Clown, Op. 29: no 1, Come away, death
Written: 1939; USA
Paul Hindemith
11. English Songs (9): no 5, On hearing `The Last Rose of Summer'
Written: 1942; USA
12. Echo
Written: 1942; Germany
Idabelle Firestone
13. If I could tell you
Written: 1940; USA
Charles Ives
14. The Collection
Written: 1920; USA
Aaron Copland
15. Poems (12) of Emily Dickinson: no 1, Nature, the gentlest mother
Written: 1949-1950; USA
Eric Ewazen
16. The Tiger
Written: 1993; USA
William Bolcom
17. Never more will the wind
Written: 1990; USA
Ned Rorem
18. Little Elegy
Written: 1949; USA
Sigmund Romberg
19. The Desert Song: One Alone
Written: 1926; USA
Richard Hageman
20. Do not go, my love
Written: 1917; USA
Marc Marder
21. To a Stranger
Written: 1996; USA
Ernest Charles
22. When I have sung my songs
Written: 1934; USA
Theodore Chanler
23. These, my Ophelia
Written: 1925; USA
Charles Tomlinson Griffes
24. Poems (2) of Masefield: no 1, An Old Song Re-sung
Written: 1918; USA
Victor Herbert
25. Naughty Marietta: Ah! Sweet mystery of life
Written: 1910; USA
Horatio Parker
26. Songs (4), Op. 51: no 2, June Night
Written: 1901; USA
John Musto
27. Triolet
Written: 1987; USA
Amy Marcy Beach
28. Browning Songs (3), Op. 44: no 1, The year's at the spring
Written: by 1900; USA

LOG EAC:

X Lossless Decoder version 20140504 (147.0)
XLD extraction logfile from 2014-08-01 11:23:52 -0500
Robert White, Samuel Sanders / Sure on this shining night: 20th-century romantic song of America
Used drive : PIONEER DVD-RW DVR-112D (revision BC14)Media type : Pressed CD
Ripper mode : XLD Secure RipperDisable audio cache : OK for the drive with a cache less than 1375KiBMake use of C2 pointers : NORead offset correction : 48Max retry count : 20Gap status : Analyzed, Appended (except HTOA)
TOC of the extracted CDTrack | Start | Length | Start sector | End sector---------------------------------------------------------1 | 00:00:42 | 01:21:23 | 42 | 61392 | 01:21:65 | 01:01:15 | 6140 | 107293 | 02:23:05 | 03:21:45 | 10730 | 258494 | 05:44:50 | 02:05:67 | 25850 | 352915 | 07:50:42 | 02:52:33 | 35292 | 482246 | 10:43:00 | 00:37:65 | 48225 | 510647 | 11:20:65 | 03:04:52 | 51065 | 649168 | 14:25:42 | 02:24:55 | 64917 | 757719 | 16:50:22 | 02:18:68 | 75772 | 8618910 | 19:09:15 | 02:36:22 | 86190 | 9791111 | 21:45:37 | 02:46:13 | 97912 | 11037412 | 24:31:50 | 01:08:67 | 110375 | 11554113 | 25:40:42 | 03:15:73 | 115542 | 13023914 | 28:56:40 | 02:22:72 | 130240 | 14096115 | 31:19:37 | 02:38:30 | 140962 | 15284116 | 33:57:67 | 03:47:55 | 152842 | 16992117 | 37:45:47 | 02:34:43 | 169922 | 18151418 | 40:20:15 | 01:41:47 | 181515 | 18913619 | 42:01:62 | 01:20:35 | 189137 | 19517120 | 43:22:22 | 03:06:00 | 195172 | 20912121 | 46:28:22 | 02:33:50 | 209122 | 22064622 | 49:01:72 | 02:19:05 | 220647 | 23107623 | 51:21:02 | 02:07:65 | 231077 | 24066624 | 53:28:67 | 02:12:15 | 240667 | 25058125 | 55:41:07 | 01:46:40 | 250582 | 25857126 | 57:27:47 | 02:26:45 | 258572 | 26956627 | 59:54:17 | 01:43:00 | 269567 | 27729128 | 61:37:17 | 01:11:65 | 277292 | 282681
AccurateRip Summary (DiscID: 003efd32-04fab210-890eb91c)Track 01 : OK (v1+v2, confidence 2/3)Track 02 : OK (v1+v2, confidence 2/3)Track 03 : OK (v1+v2, confidence 2/3)Track 04 : OK (v1+v2, confidence 2/3)Track 05 : OK (v1+v2, confidence 2/3)Track 06 : OK (v1+v2, confidence 2/3)Track 07 : OK (v1+v2, confidence 2/3)Track 08 : OK (v1+v2, confidence 2/3)Track 09 : OK (v1+v2, confidence 2/3)Track 10 : OK (v1+v2, confidence 2/3)Track 11 : OK (v1+v2, confidence 2/3)Track 12 : OK (v1+v2, confidence 2/3)Track 13 : OK (v1+v2, confidence 2/3)Track 14 : OK (v1+v2, confidence 2/3)Track 15 : OK (v1+v2, confidence 2/3)Track 16 : OK (v1+v2, confidence 2/3)Track 17 : OK (v1+v2, confidence 2/3)Track 18 : OK (v1+v2, confidence 2/3)Track 19 : OK (v1+v2, confidence 2/3)Track 20 : OK (v1+v2, confidence 2/3)Track 21 : OK (v1+v2, confidence 2/3)Track 22 : OK (v1+v2, confidence 2/3)Track 23 : OK (v1+v2, confidence 2/3)Track 24 : OK (v1+v2, confidence 2/3)Track 25 : OK (v1+v2, confidence 2/3)Track 26 : OK (v1+v2, confidence 2/3)Track 27 : OK (v1+v2, confidence 2/3)Track 28 : OK (v1+v2, confidence 2/3)->All tracks accurately ripped.
All TracksAlbum gain : 2.37 dBPeak : 0.977203StatisticsRead error : 0Jitter error (maybe fixed) : 0Retry sector count : 75Damaged sector count : 0
Track 01Filename : /Volumes/500gb/Robert White, Samuel Sanders - Sure on this shining night (1997) [FLAC]/01 The Children.flacPre-gap length : 00:02:42
Track gain : 5.74 dBPeak : 0.411896CRC32 hash (test run) : 61E21DE8CRC32 hash : 61E21DE8CRC32 hash (skip zero) : 794FFA0FAccurateRip v1 signature : 00ABA4F6AccurateRip v2 signature : DA4D09A4->Accurately ripped (v1+v2, confidence 1+1/3)StatisticsRead error : 0Jitter error (maybe fixed) : 0Retry sector count : 0Damaged sector count : 0
Track 02Filename : /Volumes/500gb/Robert White, Samuel Sanders - Sure on this shining night (1997) [FLAC]/02 Three Browning Songs, Op. 44 No. 1 - The Year's at the Spring.flacPre-gap length : 00:04:05
Track gain : -1.85 dBPeak : 0.796875CRC32 hash (test run) : 8E6FAE53CRC32 hash : 8E6FAE53CRC32 hash (skip zero) : EFC77388AccurateRip v1 signature : D8AAC1CFAccurateRip v2 signature : 9A354F1E->Accurately ripped (v1+v2, confidence 1+1/3)StatisticsRead error : 0Jitter error (maybe fixed) : 0Retry sector count : 0Damaged sector count : 0
Track 03Filename : /Volumes/500gb/Robert White, Samuel Sanders - Sure on this shining night (1997) [FLAC]/03 When stars are in the quiet skies.flacPre-gap length : 00:04:13
Track gain : 2.88 dBPeak : 0.515900CRC32 hash (test run) : 9458D404CRC32 hash : 9458D404CRC32 hash (skip zero) : AD759B98AccurateRip v1 signature : 1816431FAccurateRip v2 signature : 3554B5BB->Accurately ripped (v1+v2, confidence 1+1/3)StatisticsRead error : 0Jitter error (maybe fixed) : 0Retry sector count : 0Damaged sector count : 0
Track 04Filename : /Volumes/500gb/Robert White, Samuel Sanders - Sure on this shining night (1997) [FLAC]/04 Orpheus with his lute.flacPre-gap length : 00:05:25
Track gain : 6.40 dBPeak : 0.422028CRC32 hash (test run) : E1196DC6CRC32 hash : E1196DC6CRC32 hash (skip zero) : E8C82D9CAccurateRip v1 signature : CE490706AccurateRip v2 signature : 632B4162->Accurately ripped (v1+v2, confidence 1+1/3)StatisticsRead error : 0Jitter error (maybe fixed) : 0Retry sector count : 0Damaged sector count : 0
Track 05Filename : /Volumes/500gb/Robert White, Samuel Sanders - Sure on this shining night (1997) [FLAC]/05 Rose Marie.flacPre-gap length : 00:05:07
Track gain : 1.25 dBPeak : 0.657532CRC32 hash (test run) : 1D259A70CRC32 hash : 1D259A70CRC32 hash (skip zero) : 9ECB517FAccurateRip v1 signature : 58CEB129AccurateRip v2 signature : F8BAE309->Accurately ripped (v1+v2, confidence 1+1/3)StatisticsRead error : 0Jitter error (maybe fixed) : 0Retry sector count : 0Damaged sector count : 0
Track 06Filename : /Volumes/500gb/Robert White, Samuel Sanders - Sure on this shining night (1997) [FLAC]/06 The Side Show.flacPre-gap length : 00:04:25
Track gain : 3.85 dBPeak : 0.429810CRC32 hash (test run) : 0637D4ABCRC32 hash : 0637D4ABCRC32 hash (skip zero) : 09472906AccurateRip v1 signature : 842BC564AccurateRip v2 signature : EE3A0DC1->Accurately ripped (v1+v2, confidence 1+1/3)StatisticsRead error : 0Jitter error (maybe fixed) : 0Retry sector count : 0Damaged sector count : 0
Track 07Filename : /Volumes/500gb/Robert White, Samuel Sanders - Sure on this shining night (1997) [FLAC]/07 Song to the Witch of The Cloisters.flacPre-gap length : 00:05:13
Track gain : 1.34 dBPeak : 0.815460CRC32 hash (test run) : 67D0BD58CRC32 hash : 67D0BD58CRC32 hash (skip zero) : 2EDE8BE8AccurateRip v1 signature : A0AD1946AccurateRip v2 signature : 43E2E1C2->Accurately ripped (v1+v2, confidence 1+1/3)StatisticsRead error : 0Jitter error (maybe fixed) : 0Retry sector count : 0Damaged sector count : 0
Track 08Filename : /Volumes/500gb/Robert White, Samuel Sanders - Sure on this shining night (1997) [FLAC]/08 Four Songs, Op. 13 No. 3 - Sure on this shining night.flacPre-gap length : 00:08:05
Track gain : 2.95 dBPeak : 0.518402CRC32 hash (test run) : DD201097CRC32 hash : DD201097CRC32 hash (skip zero) : E64A5CD7AccurateRip v1 signature : 0BA06B79AccurateRip v2 signature : C8D8E46D->Accurately ripped (v1+v2, confidence 1+1/3)StatisticsRead error : 0Jitter error (maybe fixed) : 0Retry sector count : 0Damaged sector count : 0
Track 09Filename : /Volumes/500gb/Robert White, Samuel Sanders - Sure on this shining night (1997) [FLAC]/09 Five Shakespeare Songs, No. 3 - Sigh no more, ladies.flacPre-gap length : 00:05:55
Track gain : 1.47 dBPeak : 0.682922CRC32 hash (test run) : 74B73B92CRC32 hash : 74B73B92CRC32 hash (skip zero) : A750DC32AccurateRip v1 signature : B6FF19D7AccurateRip v2 signature : 507243D3->Accurately ripped (v1+v2, confidence 1+1/3)StatisticsRead error : 0Jitter error (maybe fixed) : 0Retry sector count : 0Damaged sector count : 0
Track 10Filename : /Volumes/500gb/Robert White, Samuel Sanders - Sure on this shining night (1997) [FLAC]/10 Songs of the clown, op. 29 No. 1 - Come away, death.flacPre-gap length : 00:05:00
Track gain : 5.04 dBPeak : 0.503876CRC32 hash (test run) : 0485801FCRC32 hash : 0485801FCRC32 hash (skip zero) : A9EDEE9AAccurateRip v1 signature : 83A1A1E1AccurateRip v2 signature : CFAD62CB->Accurately ripped (v1+v2, confidence 1+1/3)StatisticsRead error : 0Jitter error (maybe fixed) : 0Retry sector count : 0Damaged sector count : 0
Track 11Filename : /Volumes/500gb/Robert White, Samuel Sanders - Sure on this shining night (1997) [FLAC]/11 On hearing 'The Last Rose of Summer'.flacPre-gap length : 00:05:06
Track gain : 4.84 dBPeak : 0.399536CRC32 hash (test run) : 27F66C30CRC32 hash : 27F66C30CRC32 hash (skip zero) : 13BED1CDAccurateRip v1 signature : D5C18C7AAccurateRip v2 signature : 40DD9A99->Accurately ripped (v1+v2, confidence 1+1/3)StatisticsRead error : 0Jitter error (maybe fixed) : 0Retry sector count : 0Damaged sector count : 0
Track 12Filename : /Volumes/500gb/Robert White, Samuel Sanders - Sure on this shining night (1997) [FLAC]/12 Echo.flacPre-gap length : 00:05:23
Track gain : 4.98 dBPeak : 0.591949CRC32 hash (test run) : B4E0CCDDCRC32 hash : B4E0CCDDCRC32 hash (skip zero) : 8D5A4ECCAccurateRip v1 signature : 54DE02E4AccurateRip v2 signature : CDDBA5B5->Accurately ripped (v1+v2, confidence 1+1/3)StatisticsRead error : 0Jitter error (maybe fixed) : 0Retry sector count : 0Damaged sector count : 0
Track 13Filename : /Volumes/500gb/Robert White, Samuel Sanders - Sure on this shining night (1997) [FLAC]/13 If I could tell you.flacPre-gap length : 00:05:07
Track gain : 2.49 dBPeak : 0.524139CRC32 hash (test run) : 7B639DB7CRC32 hash : 7B639DB7CRC32 hash (skip zero) : 45C6A4D1AccurateRip v1 signature : 34D8C9B5AccurateRip v2 signature : F56D06B0->Accurately ripped (v1+v2, confidence 1+1/3)StatisticsRead error : 0Jitter error (maybe fixed) : 0Retry sector count : 0Damaged sector count : 0
Track 14Filename : /Volumes/500gb/Robert White, Samuel Sanders - Sure on this shining night (1997) [FLAC]/14 The Collection.flacPre-gap length : 00:07:40
Track gain : 3.34 dBPeak : 0.515228CRC32 hash (test run) : A91CA3ACCRC32 hash : A91CA3ACCRC32 hash (skip zero) : C566FD57AccurateRip v1 signature : 92920121AccurateRip v2 signature : 023B25E4->Accurately ripped (v1+v2, confidence 1+1/3)StatisticsRead error : 0Jitter error (maybe fixed) : 0Retry sector count : 0Damaged sector count : 0
Track 15Filename : /Volumes/500gb/Robert White, Samuel Sanders - Sure on this shining night (1997) [FLAC]/15 The Lord's Prayer.flacPre-gap length : 00:05:17
Track gain : -0.16 dBPeak : 0.693787CRC32 hash (test run) : C4FDBD95CRC32 hash : C4FDBD95CRC32 hash (skip zero) : F7EA0ACDAccurateRip v1 signature : AE5493D3AccurateRip v2 signature : 908F5229->Accurately ripped (v1+v2, confidence 1+1/3)StatisticsRead error : 0Jitter error (maybe fixed) : 0Retry sector count : 0Damaged sector count : 0
Track 16Filename : /Volumes/500gb/Robert White, Samuel Sanders - Sure on this shining night (1997) [FLAC]/16 Nature, the gentlest mother.flacPre-gap length : 00:07:72
Track gain : 4.68 dBPeak : 0.653595CRC32 hash (test run) : 87C2EC06CRC32 hash : 87C2EC06CRC32 hash (skip zero) : 86C0741BAccurateRip v1 signature : 16C2B74CAccurateRip v2 signature : 16A7C9CF->Accurately ripped (v1+v2, confidence 1+1/3)StatisticsRead error : 0Jitter error (maybe fixed) : 0Retry sector count : 0Damaged sector count : 0
Track 17Filename : /Volumes/500gb/Robert White, Samuel Sanders - Sure on this shining night (1997) [FLAC]/17 The Tiger.flacPre-gap length : 00:05:07
Track gain : 0.87 dBPeak : 0.977203CRC32 hash (test run) : E5D9F56ACRC32 hash : E5D9F56ACRC32 hash (skip zero) : AF078CEEAccurateRip v1 signature : 74D17F2EAccurateRip v2 signature : A2F23344->Accurately ripped (v1+v2, confidence 1+1/3)StatisticsRead error : 0Jitter error (maybe fixed) : 0Retry sector count : 0Damaged sector count : 0
Track 18Filename : /Volumes/500gb/Robert White, Samuel Sanders - Sure on this shining night (1997) [FLAC]/18 Never more will the wind.flacPre-gap length : 00:05:05
Track gain : 5.25 dBPeak : 0.519867CRC32 hash (test run) : E73CF5E7CRC32 hash : E73CF5E7CRC32 hash (skip zero) : 78A9A13FAccurateRip v1 signature : 5E7BEAC2AccurateRip v2 signature : 38EA006B->Accurately ripped (v1+v2, confidence 1+1/3)StatisticsRead error : 0Jitter error (maybe fixed) : 0Retry sector count : 0Damaged sector count : 0
Track 19Filename : /Volumes/500gb/Robert White, Samuel Sanders - Sure on this shining night (1997) [FLAC]/19 Little Elegy.flacPre-gap length : 00:06:42
Track gain : 9.11 dBPeak : 0.246338CRC32 hash (test run) : 782090C2CRC32 hash : 782090C2CRC32 hash (skip zero) : 24303966AccurateRip v1 signature : F96CC208AccurateRip v2 signature : D04CDB0D->Accurately ripped (v1+v2, confidence 1+1/3)StatisticsRead error : 0Jitter error (maybe fixed) : 0Retry sector count : 0Damaged sector count : 0
Track 20Filename : /Volumes/500gb/Robert White, Samuel Sanders - Sure on this shining night (1997) [FLAC]/20 One Alone.flacPre-gap length : 00:04:62
Track gain : 2.00 dBPeak : 0.557587CRC32 hash (test run) : EE5DEC59CRC32 hash : EE5DEC59CRC32 hash (skip zero) : 27B745E8AccurateRip v1 signature : 9DD0E9A1AccurateRip v2 signature : 047B545E->Accurately ripped (v1+v2, confidence 1+1/3)StatisticsRead error : 0Jitter error (maybe fixed) : 0Retry sector count : 1Damaged sector count : 0
Track 21Filename : /Volumes/500gb/Robert White, Samuel Sanders - Sure on this shining night (1997) [FLAC]/21 Do not go, my love.flacPre-gap length : 00:04:70
Track gain : 4.28 dBPeak : 0.867676CRC32 hash (test run) : 7EE3BDD6CRC32 hash : 7EE3BDD6CRC32 hash (skip zero) : 7FB922F0AccurateRip v1 signature : 0762FE78AccurateRip v2 signature : 25A0C8C3->Accurately ripped (v1+v2, confidence 1+1/3)StatisticsRead error : 0Jitter error (maybe fixed) : 0Retry sector count : 5Damaged sector count : 0
Track 22Filename : /Volumes/500gb/Robert White, Samuel Sanders - Sure on this shining night (1997) [FLAC]/22 To a Stranger.flacPre-gap length : 00:05:45
Track gain : 6.84 dBPeak : 0.491638CRC32 hash (test run) : 30A720B4CRC32 hash : 30A720B4CRC32 hash (skip zero) : 5E03A861AccurateRip v1 signature : 858EBA6CAccurateRip v2 signature : AEF3F26A->Accurately ripped (v1+v2, confidence 1+1/3)StatisticsRead error : 0Jitter error (maybe fixed) : 0Retry sector count : 6Damaged sector count : 0
Track 23Filename : /Volumes/500gb/Robert White, Samuel Sanders - Sure on this shining night (1997) [FLAC]/23 When I have sung my songs.flacPre-gap length : 00:06:02
Track gain : 0.80 dBPeak : 0.822723CRC32 hash (test run) : 6530E3E6CRC32 hash : 6530E3E6CRC32 hash (skip zero) : CE66DC93AccurateRip v1 signature : 64FFB013AccurateRip v2 signature : 1F932DEE->Accurately ripped (v1+v2, confidence 1+1/3)StatisticsRead error : 0Jitter error (maybe fixed) : 0Retry sector count : 6Damaged sector count : 0
Track 24Filename : /Volumes/500gb/Robert White, Samuel Sanders - Sure on this shining night (1997) [FLAC]/24 These, my Ophelia.flacPre-gap length : 00:04:57
Track gain : 6.06 dBPeak : 0.346100CRC32 hash (test run) : 47D5CF4BCRC32 hash : 47D5CF4BCRC32 hash (skip zero) : 2808DCB7AccurateRip v1 signature : 30EFB923AccurateRip v2 signature : 933763C8->Accurately ripped (v1+v2, confidence 1+1/3)StatisticsRead error : 0Jitter error (maybe fixed) : 0Retry sector count : 6Damaged sector count : 0
Track 25Filename : /Volumes/500gb/Robert White, Samuel Sanders - Sure on this shining night (1997) [FLAC]/25 An Old Song Re-sung.flacPre-gap length : 00:06:09
Track gain : 0.02 dBPeak : 0.872986CRC32 hash (test run) : C759DBF7CRC32 hash : C759DBF7CRC32 hash (skip zero) : 03D66CFBAccurateRip v1 signature : FC4D7F99AccurateRip v2 signature : BFE7C522->Accurately ripped (v1+v2, confidence 1+1/3)StatisticsRead error : 0Jitter error (maybe fixed) : 0Retry sector count : 5Damaged sector count : 0
Track 26Filename : /Volumes/500gb/Robert White, Samuel Sanders - Sure on this shining night (1997) [FLAC]/26 Naughty Marietta - Ah! Sweet mystery of life.flacPre-gap length : 00:04:07
Track gain : 0.87 dBPeak : 0.663635CRC32 hash (test run) : A22B3113CRC32 hash : A22B3113CRC32 hash (skip zero) : 64DD4099AccurateRip v1 signature : C79B29BDAccurateRip v2 signature : 4DEF524D->Accurately ripped (v1+v2, confidence 1+1/3)StatisticsRead error : 0Jitter error (maybe fixed) : 0Retry sector count : 13Damaged sector count : 0
Track 27Filename : /Volumes/500gb/Robert White, Samuel Sanders - Sure on this shining night (1997) [FLAC]/27 June Night, Op. 51 No. 2.flacPre-gap length : 00:04:40
Track gain : 1.24 dBPeak : 0.658844CRC32 hash (test run) : 35787C78CRC32 hash : 35787C78CRC32 hash (skip zero) : 2DBEEBCCAccurateRip v1 signature : AFE2683CAccurateRip v2 signature : 930FB35C->Accurately ripped (v1+v2, confidence 1+1/3)StatisticsRead error : 0Jitter error (maybe fixed) : 0Retry sector count : 15Damaged sector count : 0
Track 28Filename : /Volumes/500gb/Robert White, Samuel Sanders - Sure on this shining night (1997) [FLAC]/28 Triolet.flacPre-gap length : 00:04:72
Track gain : 5.84 dBPeak : 0.424683CRC32 hash (test run) : BA133508CRC32 hash : BA133508CRC32 hash (skip zero) : 3E042433AccurateRip v1 signature : F0F45519AccurateRip v2 signature : 1523E558->Accurately ripped (v1+v2, confidence 1+1/3)StatisticsRead error : 0Jitter error (maybe fixed) : 0Retry sector count : 18Damaged sector count : 0
No errors occurred
End of status report
-----BEGIN XLD SIGNATURE-----FkMyWZmJhtMMPBzLgWJ8XjjIEgVXFweT5mz2DLfz.at9mTNIJqQhekRhegASsNUURXl9TTl45WxC.M8cSdpQtOAH3Gooaof2CHUTwL4-----END XLD SIGNATURE-----

LOG (.CUE):

TITLE "Sure on this shining night: 20th-century romantic song of America"PERFORMER "Robert White, Samuel Sanders"REM GENRE "Classical"REM DATE "1997"REM DISCID 890EB91CREM REPLAYGAIN_ALBUM_GAIN 2.37 dBREM REPLAYGAIN_ALBUM_PEAK 0.977203FILE "01 The Children.flac" WAVE TRACK 01 AUDIO TITLE "The Children" PERFORMER "Robert White, Samuel Sanders" SONGWRITER "Theodore Chanler" ISRC GBAJY9692001 REM REPLAYGAIN_TRACK_GAIN 5.74 dB REM REPLAYGAIN_TRACK_PEAK 0.411896 PREGAP 00:00:42 INDEX 01 00:00:00 TRACK 02 AUDIO TITLE "Three Browning Songs, Op. 44 No. 1 - The Year's at the Spring" PERFORMER "Robert White, Samuel Sanders" SONGWRITER "Amy Beach" ISRC GBAJY9692002 REM REPLAYGAIN_TRACK_GAIN -1.85 dB REM REPLAYGAIN_TRACK_PEAK 0.796875 INDEX 00 01:17:18FILE "02 Three Browning Songs, Op. 44 No. 1 - The Year's at the Spring.flac" WAVE INDEX 01 00:00:00 TRACK 03 AUDIO TITLE "When stars are in the quiet skies" PERFORMER "Robert White, Samuel Sanders" SONGWRITER "George Chadwick" ISRC GBAJY9692003 REM REPLAYGAIN_TRACK_GAIN 2.88 dB REM REPLAYGAIN_TRACK_PEAK 0.515900 INDEX 00 00:57:02FILE "03 When stars are in the quiet skies.flac" WAVE INDEX 01 00:00:00 TRACK 04 AUDIO TITLE "Orpheus with his lute" PERFORMER "Robert White, Samuel Sanders" SONGWRITER "William Schuman" ISRC GBAJY9692004 REM REPLAYGAIN_TRACK_GAIN 6.40 dB REM REPLAYGAIN_TRACK_PEAK 0.422028 INDEX 00 03:16:20FILE "04 Orpheus with his lute.flac" WAVE INDEX 01 00:00:00 TRACK 05 AUDIO TITLE "Rose Marie" PERFORMER "Robert White, Samuel Sanders" SONGWRITER "Rudolf Friml" ISRC GBAJY9692005 REM REPLAYGAIN_TRACK_GAIN 1.25 dB REM REPLAYGAIN_TRACK_PEAK 0.657532 INDEX 00 02:00:60FILE "05 Rose Marie.flac" WAVE INDEX 01 00:00:00 TRACK 06 AUDIO TITLE "The Side Show" PERFORMER "Robert White, Samuel Sanders" SONGWRITER "Charles Ives" ISRC GBAJY9692006 REM REPLAYGAIN_TRACK_GAIN 3.85 dB REM REPLAYGAIN_TRACK_PEAK 0.429810 INDEX 00 02:48:08FILE "06 The Side Show.flac" WAVE INDEX 01 00:00:00 TRACK 07 AUDIO TITLE "Song to the Witch of The Cloisters" PERFORMER "Robert White, Samuel Sanders" SONGWRITER "John Corigliano" ISRC GBAJY9692007 REM REPLAYGAIN_TRACK_GAIN 1.34 dB REM REPLAYGAIN_TRACK_PEAK 0.815460 INDEX 00 00:32:52FILE "07 Song to the Witch of The Cloisters.flac" WAVE INDEX 01 00:00:00 TRACK 08 AUDIO TITLE "Four Songs, Op. 13 No. 3 - Sure on this shining night" PERFORMER "Robert White, Samuel Sanders" SONGWRITER "Samuel Barber" ISRC GBAJY9692008 REM REPLAYGAIN_TRACK_GAIN 2.95 dB REM REPLAYGAIN_TRACK_PEAK 0.518402 INDEX 00 02:56:47FILE "08 Four Songs, Op. 13 No. 3 - Sure on this shining night.flac" WAVE INDEX 01 00:00:00 TRACK 09 AUDIO TITLE "Five Shakespeare Songs, No. 3 - Sigh no more, ladies" PERFORMER "Robert White, Samuel Sanders" SONGWRITER "Virgil Thomson" ISRC GBAJY9692009 REM REPLAYGAIN_TRACK_GAIN 1.47 dB REM REPLAYGAIN_TRACK_PEAK 0.682922 INDEX 00 02:19:00FILE "09 Five Shakespeare Songs, No. 3 - Sigh no more, ladies.flac" WAVE INDEX 01 00:00:00 TRACK 10 AUDIO TITLE "Songs of the clown, op. 29 No. 1 - Come away, death" PERFORMER "Robert White, Samuel Sanders" SONGWRITER "Erich Korngold" ISRC GBAJY9692010 REM REPLAYGAIN_TRACK_GAIN 5.04 dB REM REPLAYGAIN_TRACK_PEAK 0.503876 INDEX 00 02:13:68FILE "10 Songs of the clown, op. 29 No. 1 - Come away, death.flac" WAVE INDEX 01 00:00:00 TRACK 11 AUDIO TITLE "On hearing 'The Last Rose of Summer'" PERFORMER "Robert White, Samuel Sanders" SONGWRITER "Paul Hindemith" ISRC GBAJY9692011 REM REPLAYGAIN_TRACK_GAIN 4.84 dB REM REPLAYGAIN_TRACK_PEAK 0.399536 INDEX 00 02:31:16FILE "11 On hearing 'The Last Rose of Summer'.flac" WAVE INDEX 01 00:00:00 TRACK 12 AUDIO TITLE "Echo" PERFORMER "Robert White, Samuel Sanders" SONGWRITER "Paul Hindemith" ISRC GBAJY9692012 REM REPLAYGAIN_TRACK_GAIN 4.98 dB REM REPLAYGAIN_TRACK_PEAK 0.591949 INDEX 00 02:40:65FILE "12 Echo.flac" WAVE INDEX 01 00:00:00 TRACK 13 AUDIO TITLE "If I could tell you" PERFORMER "Robert White, Samuel Sanders" SONGWRITER "Idabelle Firestone" ISRC GBAJY9692013 REM REPLAYGAIN_TRACK_GAIN 2.49 dB REM REPLAYGAIN_TRACK_PEAK 0.524139 INDEX 00 01:03:60FILE "13 If I could tell you.flac" WAVE INDEX 01 00:00:00 TRACK 14 AUDIO TITLE "The Collection" PERFORMER "Robert White, Samuel Sanders" SONGWRITER "Charles Ives" ISRC GBAJY9692014 REM REPLAYGAIN_TRACK_GAIN 3.34 dB REM REPLAYGAIN_TRACK_PEAK 0.515228 INDEX 00 03:08:33FILE "14 The Collection.flac" WAVE INDEX 01 00:00:00 TRACK 15 AUDIO TITLE "The Lord's Prayer" PERFORMER "Robert White, Samuel Sanders" SONGWRITER "Albert Hay Malotte" ISRC GBAJY9692015 REM REPLAYGAIN_TRACK_GAIN -0.16 dB REM REPLAYGAIN_TRACK_PEAK 0.693787 INDEX 00 02:17:55FILE "15 The Lord's Prayer.flac" WAVE INDEX 01 00:00:00 TRACK 16 AUDIO TITLE "Nature, the gentlest mother" PERFORMER "Robert White, Samuel Sanders" SONGWRITER "Aaron Copland" ISRC GBAJY9692016 REM REPLAYGAIN_TRACK_GAIN 4.68 dB REM REPLAYGAIN_TRACK_PEAK 0.653595 INDEX 00 02:30:33FILE "16 Nature, the gentlest mother.flac" WAVE INDEX 01 00:00:00 TRACK 17 AUDIO TITLE "The Tiger" PERFORMER "Robert White, Samuel Sanders" SONGWRITER "Eric Ewazen" ISRC GBAJY9692017 REM REPLAYGAIN_TRACK_GAIN 0.87 dB REM REPLAYGAIN_TRACK_PEAK 0.977203 INDEX 00 03:42:48FILE "17 The Tiger.flac" WAVE INDEX 01 00:00:00 TRACK 18 AUDIO TITLE "Never more will the wind" PERFORMER "Robert White, Samuel Sanders" SONGWRITER "William Bolcom" ISRC GBAJY9692018 REM REPLAYGAIN_TRACK_GAIN 5.25 dB REM REPLAYGAIN_TRACK_PEAK 0.519867 INDEX 00 02:29:38FILE "18 Never more will the wind.flac" WAVE INDEX 01 00:00:00 TRACK 19 AUDIO TITLE "Little Elegy" PERFORMER "Robert White, Samuel Sanders" SONGWRITER "Ned Rorem" ISRC GBAJY9692019 REM REPLAYGAIN_TRACK_GAIN 9.11 dB REM REPLAYGAIN_TRACK_PEAK 0.246338 INDEX 00 01:35:05FILE "19 Little Elegy.flac" WAVE INDEX 01 00:00:00 TRACK 20 AUDIO TITLE "One Alone" PERFORMER "Robert White, Samuel Sanders" SONGWRITER "Sigmund Romberg" ISRC GBAJY9692020 REM REPLAYGAIN_TRACK_GAIN 2.00 dB REM REPLAYGAIN_TRACK_PEAK 0.557587 INDEX 00 01:15:48FILE "20 One Alone.flac" WAVE INDEX 01 00:00:00 TRACK 21 AUDIO TITLE "Do not go, my love" PERFORMER "Robert White, Samuel Sanders" SONGWRITER "Richard Hageman" ISRC GBAJY9692021 REM REPLAYGAIN_TRACK_GAIN 4.28 dB REM REPLAYGAIN_TRACK_PEAK 0.867676 INDEX 00 03:01:05FILE "21 Do not go, my love.flac" WAVE INDEX 01 00:00:00 TRACK 22 AUDIO TITLE "To a Stranger" PERFORMER "Robert White, Samuel Sanders" SONGWRITER "Marc Marder" ISRC GBAJY9692022 REM REPLAYGAIN_TRACK_GAIN 6.84 dB REM REPLAYGAIN_TRACK_PEAK 0.491638 INDEX 00 02:28:05FILE "22 To a Stranger.flac" WAVE INDEX 01 00:00:00 TRACK 23 AUDIO TITLE "When I have sung my songs" PERFORMER "Robert White, Samuel Sanders" SONGWRITER "Ernest Charles" ISRC GBAJY9692023 REM REPLAYGAIN_TRACK_GAIN 0.80 dB REM REPLAYGAIN_TRACK_PEAK 0.822723 INDEX 00 02:13:03FILE "23 When I have sung my songs.flac" WAVE INDEX 01 00:00:00 TRACK 24 AUDIO TITLE "These, my Ophelia" PERFORMER "Robert White, Samuel Sanders" SONGWRITER "Theodore Chanler" ISRC GBAJY9692024 REM REPLAYGAIN_TRACK_GAIN 6.06 dB REM REPLAYGAIN_TRACK_PEAK 0.346100 INDEX 00 02:03:08FILE "24 These, my Ophelia.flac" WAVE INDEX 01 00:00:00 TRACK 25 AUDIO TITLE "An Old Song Re-sung" PERFORMER "Robert White, Samuel Sanders" SONGWRITER "Charles Tomlinson Griffes" ISRC GBAJY9692025 REM REPLAYGAIN_TRACK_GAIN 0.02 dB REM REPLAYGAIN_TRACK_PEAK 0.872986 INDEX 00 02:06:06FILE "25 An Old Song Re-sung.flac" WAVE INDEX 01 00:00:00 TRACK 26 AUDIO TITLE "Naughty Marietta - Ah! Sweet mystery of life" PERFORMER "Robert White, Samuel Sanders" SONGWRITER "Victor Herbert" ISRC GBAJY9692026 REM REPLAYGAIN_TRACK_GAIN 0.87 dB REM REPLAYGAIN_TRACK_PEAK 0.663635 INDEX 00 01:42:33FILE "26 Naughty Marietta - Ah! Sweet mystery of life.flac" WAVE INDEX 01 00:00:00 TRACK 27 AUDIO TITLE "June Night, Op. 51 No. 2" PERFORMER "Robert White, Samuel Sanders" SONGWRITER "Horatio Parker" ISRC GBAJY9692027 REM REPLAYGAIN_TRACK_GAIN 1.24 dB REM REPLAYGAIN_TRACK_PEAK 0.658844 INDEX 00 02:22:05FILE "27 June Night, Op. 51 No. 2.flac" WAVE INDEX 01 00:00:00 TRACK 28 AUDIO TITLE "Triolet" PERFORMER "Robert White, Samuel Sanders" SONGWRITER "John Musto" ISRC GBAJY9692028 REM REPLAYGAIN_TRACK_GAIN 5.84 dB REM REPLAYGAIN_TRACK_PEAK 0.424683 INDEX 00 01:38:03FILE "28 Triolet.flac" WAVE INDEX 01 00:00:00



Показать сообщения:    

Текущее время: 08-Дек 12:50

Часовой пояс: UTC + 3


Вы не можете начинать темы
Вы не можете отвечать на сообщения
Вы не можете редактировать свои сообщения
Вы не можете удалять свои сообщения
Вы не можете голосовать в опросах
Вы не можете прикреплять файлы к сообщениям
Вы не можете скачивать файлы