(Classical) Charles Ives - \'Romanzo di Central Park\' and other songs - Gerald Finley, Julius Drake - 2008, FLAC (image+.cue) lossless


 

[Цитировать]

Charles Ives - 'Romanzo di Central Park' and other songs - Gerald Finley, Julius Drake
Жанр: Classical
Страна-производитель диска: UK
Год издания диска: 2008
Издатель (лейбл): Hyperion
Номер по каталогу: CDA67644
Дата записи: 2007
Аудиокодек: FLAC
Тип рипа: image+.cue
Битрейт аудио: lossless
Продолжительность: 62:28
Источник: собственный рип
Наличие сканов в содержимом раздачи: да
Треклист:
Charles Ives (1874-1954)
[1] On the Counter
[2] The Circus Band
[3] Two Little Flowers
[4] Ilmenau
[5] A Night Song
[6] Down East
[7] Premonitions
[8] The See'r
[9] Songs my mother taught me
[10] In the Alley
[11] Mists
[12] They are There!
[13] In Flanders Fields
[14] The South Wind
[15] My Native Land
[16] Watchman!
[17] The Children's Hour
[18] Evidence
[19] The World's Wanderers
[20] Slow March
[21] Omens and Oracles
[22] Those Evening Bells
[23] Allegro
[24] Evening
[25] The Last Reader
[26] To Edith
[27] At the River
[28] A Christmas Carol
[29] The Light that is Felt
[30] Romanzo di Central Park
Исполнители:
Gerald Finley baritone
Julius Drake piano

Лог создания рипа

Exact Audio Copy V1.0 beta 3 from 29. August 2011
EAC extraction logfile from 15. July 2014, 1:10
Gerald Finley, Julius Drake / Ives - Romanzo di Central Park and other songs
Used drive : HL-DT-STDVDRAM GU70N Adapter: 0 ID: 0
Read mode : SecureUtilize accurate stream : YesDefeat audio cache : YesMake use of C2 pointers : No
Read offset correction : 48Overread into Lead-In and Lead-Out : NoFill up missing offset samples with silence : YesDelete leading and trailing silent blocks : NoNull samples used in CRC calculations : YesUsed interface : Native Win32 interface for Win NT & 2000
Used output format : User Defined EncoderSelected bitrate : 128 kBit/sQuality : HighAdd ID3 tag : NoCommand line compressor : C:\Program Files (x86)\Exact Audio Copy\Flac\flac.exeAdditional command line options : -V -8 -T "Date=%year%" -T "Genre=%genre%" %source%
TOC of the extracted CD
Track | Start | Length | Start sector | End sector --------------------------------------------------------- 1 | 0:00.24 | 1:30.19 | 24 | 6792 2 | 1:30.43 | 2:17.32 | 6793 | 17099 3 | 3:48.00 | 1:26.05 | 17100 | 23554 4 | 5:14.05 | 2:15.15 | 23555 | 33694 5 | 7:29.20 | 1:23.51 | 33695 | 39970 6 | 8:52.71 | 3:10.74 | 39971 | 54294 7 | 12:03.70 | 1:52.42 | 54295 | 62736 8 | 13:56.37 | 1:04.14 | 62737 | 67550 9 | 15:00.51 | 2:29.26 | 67551 | 78751 10 | 17:30.02 | 2:00.39 | 78752 | 87790 11 | 19:30.41 | 1:40.72 | 87791 | 95362 12 | 21:11.38 | 2:56.55 | 95363 | 108617 13 | 24:08.18 | 3:03.10 | 108618 | 122352 14 | 27:11.28 | 2:45.16 | 122353 | 134743 15 | 29:56.44 | 1:45.01 | 134744 | 142619 16 | 31:41.45 | 1:47.27 | 142620 | 150671 17 | 33:28.72 | 2:32.40 | 150672 | 162111 18 | 36:01.37 | 1:21.44 | 162112 | 168230 19 | 37:23.06 | 1:46.36 | 168231 | 176216 20 | 39:09.42 | 1:52.60 | 176217 | 184676 21 | 41:02.27 | 2:54.54 | 184677 | 197780 22 | 43:57.06 | 1:56.56 | 197781 | 206536 23 | 45:53.62 | 1:23.00 | 206537 | 212761 24 | 47:16.62 | 2:02.48 | 212762 | 221959 25 | 49:19.35 | 1:40.59 | 221960 | 229518 26 | 51:00.19 | 1:30.00 | 229519 | 236268 27 | 52:30.19 | 2:32.20 | 236269 | 247688 28 | 55:02.39 | 2:10.01 | 247689 | 257439 29 | 57:12.40 | 2:13.73 | 257440 | 267487 30 | 59:26.38 | 3:00.15 | 267488 | 281002
Range status and errors
Selected range
Filename C:\temp\CDA67644 - Ives - Romanzo di Central Park and other songs\Ives - Romanzo di Central Park.wav
Peak level 98.5 % Extraction speed 2.0 X Range quality 100.0 % Test CRC 4D00295A Copy CRC 4D00295A Copy OK
No errors occurred
AccurateRip summary
Track 1 accurately ripped (confidence 4) [15F31F36] (AR v1)Track 2 accurately ripped (confidence 4) [19C7C426] (AR v1)Track 3 accurately ripped (confidence 4) [4BF03033] (AR v1)Track 4 accurately ripped (confidence 4) [1F9FD7B7] (AR v1)Track 5 accurately ripped (confidence 4) [A713EAF3] (AR v1)Track 6 accurately ripped (confidence 4) [2BB7700E] (AR v1)Track 7 accurately ripped (confidence 4) [A8B5F035] (AR v1)Track 8 accurately ripped (confidence 4) [64BB2C90] (AR v1)Track 9 accurately ripped (confidence 4) [F74017E2] (AR v1)Track 10 accurately ripped (confidence 4) [6C71E8D7] (AR v1)Track 11 accurately ripped (confidence 4) [260A73E0] (AR v1)Track 12 accurately ripped (confidence 4) [747E6674] (AR v1)Track 13 accurately ripped (confidence 4) [D98DBC99] (AR v1)Track 14 accurately ripped (confidence 4) [57157A38] (AR v1)Track 15 accurately ripped (confidence 4) [2AF31182] (AR v1)Track 16 accurately ripped (confidence 4) [3432F582] (AR v1)Track 17 accurately ripped (confidence 4) [73E533BC] (AR v1)Track 18 accurately ripped (confidence 4) [CF7340F7] (AR v1)Track 19 accurately ripped (confidence 4) [99CF5720] (AR v1)Track 20 accurately ripped (confidence 4) [387EB9AE] (AR v1)Track 21 accurately ripped (confidence 4) [FAE38076] (AR v1)Track 22 accurately ripped (confidence 4) [97C14B14] (AR v1)Track 23 accurately ripped (confidence 4) [FB3F2C20] (AR v1)Track 24 accurately ripped (confidence 4) [B943DF17] (AR v1)Track 25 accurately ripped (confidence 4) [B639929A] (AR v1)Track 26 accurately ripped (confidence 4) [43E9AB1B] (AR v1)Track 27 accurately ripped (confidence 4) [B0AD3D1C] (AR v1)Track 28 accurately ripped (confidence 4) [0E900DA9] (AR v1)Track 29 accurately ripped (confidence 4) [06073053] (AR v1)Track 30 accurately ripped (confidence 3) [B7223D80] (AR v1)
All tracks accurately ripped
End of status report
==== Log checksum 3E17E80BC1A80B3BD6622D352E8E1FE11C7FBFE927F08E98BD42B91D6E4ADB33 ====



Показать сообщения:    

Текущее время: 10-Дек 21:36

Часовой пояс: UTC + 3


Вы не можете начинать темы
Вы не можете отвечать на сообщения
Вы не можете редактировать свои сообщения
Вы не можете удалять свои сообщения
Вы не можете голосовать в опросах
Вы не можете прикреплять файлы к сообщениям
Вы не можете скачивать файлы