(Chamber Vocal) Н. А. Римский-Корсаков - Полное собрание песен и романсов / Nicolai Rimsky-Korsakov - Complete Songs (Наталья Герасимова, Алексей Мартынов, Михаил Ланской, Марина Шутова, Сергей Байков) 3 CD - 2009, FLAC (image+.cue) lossless


 

[Цитировать]

Nicolai Rimsky-Korsakov - Complete Songs
Жанр: Chamber Vocal
Страна-производитель диска: EU
Год издания диска: 2009
Издатель (лейбл): Brilliant Classics
Номер по каталогу: 93971
Дата записи: 2009
Аудиокодек: FLAC
Тип рипа: image+.cue
Битрейт аудио: lossless
Продолжительность: 168'30
Источник: скачано с
Наличие сканов в содержимом раздачи: да
Треклист:
Николай Римский-Корсаков (1844-1908)

CD 1: Songs op.2- op.26 (1865-1882)

Op. 2. - 4 романса (1865-1866)
1 1. Щекою к щеке
2 2. Пленившись розой, соловей
3 3. Колыбельная песня
4 4. Из слез моих
Ор. 3. - 4 романса (1866)
5 1. Ель и пальма,
6 2. Южная ночь
7 3. Ночевала тучка золотая
8 4. На холмах Грузии
Ор. 4. - 4 романса (1866)
9 1. Что в имени тебе моем
10 2. Гонец
11 3. В темной роще
12 4. Тихо вечер догорает
Ор. 7. - 4 романса (1867)
13 1. Мой голос для тебя и ласковый и томный
14 2. Еврейская песня
15 3. Свитезянка
16 4. Как небеса, твой взор блистает
Ор. 8. - 6 романсов (1868-1870)
17 1. Где ты, там мысль моя летает
18 2. Ночь пролетала над миром
19 3. Тайна
20 4. Еврейская песня "Встань, сойди"
21 5. В царство розы и вина приди!
22 6. Я верю, я любим
Ор. 25. - 2 романса (1870-1876)
23 1. К моей песне
24 2. Когда гляжу тебе в глаза
Ор. 26. - 4 романса (1882)
25 1. В порыве нежности
26 2. Заклинание
27 3, Для берегов отчизны дальней
28 4. Песня Зулейки

CD 2: Songs op.27- op.43 (1883-1897)

Ор. 27. - 4 романса (1883)
1 1. Горними тихо летела душа
2 2. Эхо. Я горько сетовал в пустыне
3 3. Ты и вы
4 4. Прости, не помни дней паденья
Ор. 39. - 4 романса (1897)
5 1. О, если б ты могла
6 2. Запад гаснет.
7 3. На нивы желтые
8 4. Усни, печальный друг
Op. 40. - 4 романса (1897)
9 1. Когда волнуется желтеющая нива
10 2. Ангел.
11 3. О чем в тиши ночей
12 4. Я в гроте ждал
Ор. 41. - 4 романса (1897)
13 1. Не спящих солнце
14 2. Мне грустно
15 3. Люблю тебя, месяц.
16 4. Посмотри в свой вертоград
Ор. 42. - 4 романса (1897)
17 1. Шепот, робкое дыханье
18 2. Я пришел к тебе с приветом
19 3. Редеет облаков
20 4. Моя баловница
Ор. 43. - "Весной" — 4 романса (1897)
21 1. Звонче жаворонка пенье
22 2. Не ветер, вея с высоты
23 3. Свеж и душист
24 4. То было раннею весной

CD 3: Songs op.45,50-op.56 (1897-1898)

Ор. 45. "Поэту" — 5 романсов (1898)
1 1. Эхо
2 2. Искусство
3 3. Октава.
4 4. Сомнение
5 5. Поэт
Ор. 46. "У моря" — 5 романсов (1897)
6 1. Дробится и плещет
7 2. Не пенится море
8 3. Колышется море
9 4. Не верь мне, друг.
10 5. Вздымаются волны
Ор. 50. - 4 романса (1897—1898)
11 1. Дева и солнце
12 2. Певец
13 3. Тихо море голубое
14 4. Еще я полн
Ор. 51. - 5 романсов (1897)
15 1. Медлительно влекутся
16 2. Не пой, красавица
17 3. Цветок засохший
18 4. Красавица
19 5. Ненастный день потух
Ор. 55. - 4 романса (1897—1898)
20 1. Пробуждение
21 2. Гречанка
22 3. Сновидение.
23 4. Я умер от счастья
Ор. 56. - 2 романса (1898)
24 1. Нимфа
25 2. Сон в летнюю ночь
Исполнители:
Наталья Герасимова - сопрано, Владимир Сканави - фортепиано
Соч. 2.2, 2.3, 4.4, 7.3, 8.3, 27.1, 27.4, 40.3, 42.3, 43.1, 43.2, 45.3, 45.4, 50.1, 51.1, 51.3, 56.1, 56.2
Марина Шутова - меццо-сопрано, Елена Чеглакова - фортепиано
Соч. 3.1, 3.2, 7.1, 7.2, 8.1, 8.2, 26.4
Алексей Мартынов - тенор, Аристод Константиниди - фортепиано
Соч. 2.4, 3.4, 4.1, 4.3, 8.5, 25.2, 26.1, 27.3, 41.1, 41.3, 41.4, 42.1, 42.2, 42.4, 43.3., 43.4, 45.1, 45.2,
45.5, 46.4, 50.2, 50.3, 50.4, 51.2, 51.4, 55.1, 55.2, 55.3, 55.4
Михаил Ланской - баритон, Илья Шепс - фортепиано
Соч. 2.1, 7.4, 8.4, 8.6, 26.2, 26.3, 27.2, 39.1, 39.4, 40.4, 41.2, 46.1, 46.2, 51.5
Сергей Байков - баc, Илья Шепс - фортепиано
Соч. 3.3, 4.2, 25.1, 39.2, 39.3, 40.1, 40.2, 46.3, 46.5

Лог создания рипа

CD 1
Exact Audio Copy V1.0 beta 1 from 15. November 2010
EAC extraction logfile from 22. January 2013, 12:36
- / Rimsky-Korsakov - Complete Songs - CD 1
Used drive : ATAPI DVD A DH16A6L-C Adapter: 1 ID: 1
Read mode : SecureUtilize accurate stream : YesDefeat audio cache : YesMake use of C2 pointers : No
Read offset correction : 6Overread into Lead-In and Lead-Out : NoFill up missing offset samples with silence : YesDelete leading and trailing silent blocks : NoNull samples used in CRC calculations : NoNormalize to : 99 %Used interface : Native Win32 interface for Win NT & 2000
Used output format : Internal WAV RoutinesSample format : 44.100 Hz; 16 Bit; Stereo
TOC of the extracted CD
Track | Start | Length | Start sector | End sector --------------------------------------------------------- 1 | 0:02.00 | 1:05.70 | 150 | 5094 2 | 1:07.70 | 2:47.65 | 5095 | 17684 3 | 3:55.60 | 2:52.38 | 17685 | 30622 4 | 6:48.23 | 1:22.45 | 30623 | 36817 5 | 8:10.68 | 2:19.65 | 36818 | 47307 6 | 10:30.58 | 1:52.70 | 47308 | 55777 7 | 12:23.53 | 1:58.60 | 55778 | 64687 8 | 14:22.38 | 2:00.40 | 64688 | 73727 9 | 16:23.03 | 1:37.22 | 73728 | 81024 10 | 18:00.25 | 1:49.25 | 81025 | 89224 11 | 19:49.50 | 2:09.65 | 89225 | 98964 12 | 21:59.40 | 1:32.20 | 98965 | 105884 13 | 23:31.60 | 1:16.58 | 105885 | 111642 14 | 24:48.43 | 2:30.22 | 111643 | 122914 15 | 27:18.65 | 2:52.23 | 122915 | 135837 16 | 30:11.13 | 2:40.35 | 135838 | 147872 17 | 32:51.48 | 1:17.37 | 147873 | 153684 18 | 34:09.10 | 3:02.40 | 153685 | 167374 19 | 37:11.50 | 3:36.40 | 167375 | 183614 20 | 40:48.15 | 3:22.15 | 183615 | 198779 21 | 44:10.30 | 2:33.35 | 198780 | 210289 22 | 46:43.65 | 1:16.68 | 210290 | 216057 23 | 48:00.58 | 2:17.67 | 216058 | 226399 24 | 50:18.50 | 1:31.45 | 226400 | 233269 25 | 51:50.20 | 0:58.13 | 233270 | 237632 26 | 52:48.33 | 4:11.40 | 237633 | 256497 27 | 56:59.73 | 4:49.52 | 256498 | 278224 28 | 61:49.50 | 1:55.58 | 278225 | 286907
Range status and errors
Selected range
Filename C:\Users\david\Music\Rimsky-Korsakov - Complete Songs - CD 1.wav
Peak level 95.7 % Extraction speed 0.1 X Range quality 100.0 % Test CRC CD1B4D52 Copy CRC CD1B4D52 Copy OK
No errors occurred
AccurateRip summary
Track 1 cannot be verified as accurate (confidence 5) [D0120B19], AccurateRip returned [0D62A96F]Track 2 cannot be verified as accurate (confidence 5) [F79A26EC], AccurateRip returned [9118F092]Track 3 cannot be verified as accurate (confidence 5) [0381C0C3], AccurateRip returned [9C428ACD]Track 4 cannot be verified as accurate (confidence 5) [1F344B09], AccurateRip returned [AEC7AEAF]Track 5 cannot be verified as accurate (confidence 5) [EFBAF577], AccurateRip returned [45FC1C6B]Track 6 cannot be verified as accurate (confidence 5) [BB27EAC2], AccurateRip returned [D8EE8348]Track 7 cannot be verified as accurate (confidence 5) [E2D7E9D8], AccurateRip returned [18CADD1A]Track 8 cannot be verified as accurate (confidence 5) [75E2E1FE], AccurateRip returned [C3EF0A28]Track 9 cannot be verified as accurate (confidence 5) [6B069143], AccurateRip returned [775DDB8B]Track 10 cannot be verified as accurate (confidence 5) [05B7BFE0], AccurateRip returned [1FCE0D28]Track 11 cannot be verified as accurate (confidence 5) [2DD95C67], AccurateRip returned [2BEFC82D]Track 12 cannot be verified as accurate (confidence 5) [75F95E8F], AccurateRip returned [55A0198F]Track 13 cannot be verified as accurate (confidence 5) [141817A0], AccurateRip returned [B4213D42]Track 14 cannot be verified as accurate (confidence 5) [62DF72A9], AccurateRip returned [A4BB8909]Track 15 cannot be verified as accurate (confidence 5) [22CC0D49], AccurateRip returned [EAB6C46B]Track 16 cannot be verified as accurate (confidence 5) [7D5F7013], AccurateRip returned [6B7F2E15]Track 17 cannot be verified as accurate (confidence 5) [A6C37B82], AccurateRip returned [6357EB58]Track 18 cannot be verified as accurate (confidence 5) [696D5D12], AccurateRip returned [3E8DF510]Track 19 cannot be verified as accurate (confidence 5) [AA8C6D64], AccurateRip returned [0A42BF60]Track 20 cannot be verified as accurate (confidence 5) [8DFB7358], AccurateRip returned [ED25A5DE]Track 21 cannot be verified as accurate (confidence 5) [8EE14B08], AccurateRip returned [A937A474]Track 22 cannot be verified as accurate (confidence 5) [35FBCA59], AccurateRip returned [23639F2B]Track 23 cannot be verified as accurate (confidence 5) [158F720E], AccurateRip returned [01F33068]Track 24 cannot be verified as accurate (confidence 5) [04E2C8E2], AccurateRip returned [C47278C2]Track 25 cannot be verified as accurate (confidence 5) [2D17568A], AccurateRip returned [176C07AA]Track 26 cannot be verified as accurate (confidence 5) [F7939D1F], AccurateRip returned [54565EFD]Track 27 cannot be verified as accurate (confidence 5) [3DECDBB2], AccurateRip returned [BFE601B2]Track 28 cannot be verified as accurate (confidence 5) [F25CAA6F], AccurateRip returned [C4E8FCA8]
No tracks could be verified as accurateYou may have a different pressing from the one(s) in the database
End of status report
==== Log checksum DE4D3946C8F67D1FACAE293EB9A7169C43827D066B9AC8EADA96BF9005617822 ====
CD 2
Exact Audio Copy V1.0 beta 1 from 15. November 2010
EAC extraction logfile from 4. February 2013, 12:48
- / Rimsky-Korsakov - Complete Songs - CD 2
Used drive : ATAPI DVD A DH16A6L-C Adapter: 1 ID: 1
Read mode : SecureUtilize accurate stream : YesDefeat audio cache : YesMake use of C2 pointers : No
Read offset correction : 6Overread into Lead-In and Lead-Out : NoFill up missing offset samples with silence : YesDelete leading and trailing silent blocks : NoNull samples used in CRC calculations : NoNormalize to : 99 %Used interface : Native Win32 interface for Win NT & 2000
Used output format : Internal WAV RoutinesSample format : 44.100 Hz; 16 Bit; Stereo
TOC of the extracted CD
Track | Start | Length | Start sector | End sector --------------------------------------------------------- 1 | 0:02.00 | 3:06.48 | 150 | 14147 2 | 3:08.48 | 2:00.55 | 14148 | 23202 3 | 5:09.28 | 0:54.35 | 23203 | 27287 4 | 6:03.63 | 1:12.00 | 27288 | 32687 5 | 7:15.63 | 1:25.55 | 32688 | 39117 6 | 8:41.43 | 3:45.62 | 39118 | 56054 7 | 12:27.30 | 1:53.70 | 56055 | 64599 8 | 14:21.25 | 4:14.65 | 64600 | 83714 9 | 18:36.15 | 3:19.58 | 83715 | 98697 10 | 21:55.73 | 3:10.62 | 98698 | 113009 11 | 25:06.60 | 2:18.48 | 113010 | 123407 12 | 27:25.33 | 2:13.07 | 123408 | 133389 13 | 29:38.40 | 1:40.45 | 133390 | 140934 14 | 31:19.10 | 1:29.20 | 140935 | 147629 15 | 32:48.30 | 2:07.23 | 147630 | 157177 16 | 34:55.53 | 2:26.25 | 157178 | 168152 17 | 37:22.03 | 1:11.70 | 168153 | 173547 18 | 38:33.73 | 1:32.30 | 173548 | 180477 19 | 40:06.28 | 3:58.00 | 180478 | 198327 20 | 44:04.28 | 1:24.72 | 198328 | 204699 21 | 45:29.25 | 1:13.20 | 204700 | 210194 22 | 46:42.45 | 1:46.53 | 210195 | 218197 23 | 48:29.23 | 1:42.05 | 218198 | 225852 24 | 50:11.28 | 2:05.05 | 225853 | 235232
Range status and errors
Selected range
Filename C:\Users\Music\Rimsky-Korsakov - Complete Songs - CD 2.wav
Peak level 95.3 % Extraction speed 0.2 X Range quality 100.0 % Test CRC 44B455D9 Copy CRC 44B455D9 Copy OK
No errors occurred
AccurateRip summary
Track 1 cannot be verified as accurate (confidence 5) [D2F76011], AccurateRip returned [0390AF2D]Track 2 cannot be verified as accurate (confidence 5) [99AA8309], AccurateRip returned [CB49190F]Track 3 cannot be verified as accurate (confidence 5) [E47660A4], AccurateRip returned [21F91468]Track 4 cannot be verified as accurate (confidence 5) [CEE1960A], AccurateRip returned [27F42ADE]Track 5 cannot be verified as accurate (confidence 5) [6ABC6A16], AccurateRip returned [B9FEF2A2]Track 6 cannot be verified as accurate (confidence 5) [53352EF8], AccurateRip returned [59434644]Track 7 cannot be verified as accurate (confidence 5) [8503B04E], AccurateRip returned [71BC93B0]Track 8 cannot be verified as accurate (confidence 5) [C99594D5], AccurateRip returned [FD6760A3]Track 9 cannot be verified as accurate (confidence 5) [A27D6978], AccurateRip returned [06796E84]Track 10 cannot be verified as accurate (confidence 5) [5910CD5C], AccurateRip returned [6F846B6A]Track 11 cannot be verified as accurate (confidence 5) [0CED9B9F], AccurateRip returned [93D13371]Track 12 cannot be verified as accurate (confidence 5) [4945A0B3], AccurateRip returned [94DB0BF3]Track 13 cannot be verified as accurate (confidence 5) [283B97C2], AccurateRip returned [E0A4EBC4]Track 14 cannot be verified as accurate (confidence 5) [F3E86AAE], AccurateRip returned [28752CF2]Track 15 cannot be verified as accurate (confidence 5) [75E02E35], AccurateRip returned [F598A033]Track 16 cannot be verified as accurate (confidence 5) [54735579], AccurateRip returned [E6998135]Track 17 cannot be verified as accurate (confidence 5) [26EFEB68], AccurateRip returned [031CB55A]Track 18 cannot be verified as accurate (confidence 5) [B8F608D2], AccurateRip returned [CFD12E34]Track 19 cannot be verified as accurate (confidence 5) [C5380B88], AccurateRip returned [CB4C23A8]Track 20 cannot be verified as accurate (confidence 5) [54DF1871], AccurateRip returned [1764AD87]Track 21 cannot be verified as accurate (confidence 5) [3D2E9575], AccurateRip returned [2A3EFFFD]Track 22 cannot be verified as accurate (confidence 5) [BEDB4C7D], AccurateRip returned [F8EC3659]Track 23 cannot be verified as accurate (confidence 5) [A0C89D4C], AccurateRip returned [DD9F719A]Track 24 cannot be verified as accurate (confidence 5) [D0E6551D], AccurateRip returned [BA1352AC]
No tracks could be verified as accurateYou may have a different pressing from the one(s) in the database
End of status report
==== Log checksum 98C7063179DCFDA53B5DA92DB81ECF2EF55FD27961CE6FA3F3E6FEB0857F7E65 ====
CD 3
Exact Audio Copy V1.0 beta 1 from 15. November 2010
EAC extraction logfile from 12. February 2013, 20:33
- / Rimsky-Korsakov - Complete Songs - CD 3
Used drive : ATAPI DVD A DH16A6L-C Adapter: 1 ID: 1
Read mode : SecureUtilize accurate stream : YesDefeat audio cache : YesMake use of C2 pointers : No
Read offset correction : 6Overread into Lead-In and Lead-Out : NoFill up missing offset samples with silence : YesDelete leading and trailing silent blocks : NoNull samples used in CRC calculations : NoNormalize to : 99 %Used interface : Native Win32 interface for Win NT & 2000
Used output format : Internal WAV RoutinesSample format : 44.100 Hz; 16 Bit; Stereo
TOC of the extracted CD
Track | Start | Length | Start sector | End sector --------------------------------------------------------- 1 | 0:02.00 | 1:23.25 | 150 | 6399 2 | 1:25.25 | 2:02.28 | 6400 | 15577 3 | 3:27.53 | 1:56.40 | 15578 | 24317 4 | 5:24.18 | 3:37.32 | 24318 | 40624 5 | 9:01.50 | 2:34.38 | 40625 | 52212 6 | 11:36.13 | 1:15.67 | 52213 | 57904 7 | 12:52.05 | 1:50.15 | 57905 | 66169 8 | 14:42.20 | 1:27.15 | 66170 | 72709 9 | 16:09.35 | 1:42.20 | 72710 | 80379 10 | 17:51.55 | 2:34.20 | 80380 | 91949 11 | 20:26.00 | 2:01.43 | 91950 | 101067 12 | 22:27.43 | 1:30.62 | 101068 | 107879 13 | 23:58.30 | 0:59.58 | 107880 | 112362 14 | 24:58.13 | 1:11.55 | 112363 | 117742 15 | 26:09.68 | 2:32.27 | 117743 | 129169 16 | 28:42.20 | 2:34.55 | 129170 | 140774 17 | 31:17.00 | 3:00.03 | 140775 | 154277 18 | 34:17.03 | 2:23.42 | 154278 | 165044 19 | 36:40.45 | 5:04.18 | 165045 | 187862 20 | 41:44.63 | 1:20.55 | 187863 | 193917 21 | 43:05.43 | 1:25.60 | 193918 | 200352 22 | 44:31.28 | 1:46.32 | 200353 | 208334 23 | 46:17.60 | 1:16.00 | 208335 | 214034 24 | 47:33.60 | 3:10.10 | 214035 | 228294 25 | 50:43.70 | 4:25.38 | 228295 | 248207
Range status and errors
Selected range
Filename C:\Users\Music\Rimsky-Korsakov - Complete Songs - CD 3.wav
Peak level 100.0 % Extraction speed 0.2 X Range quality 100.0 % Test CRC EEC7C2FA Copy CRC EEC7C2FA Copy OK
No errors occurred
AccurateRip summary
Track 1 cannot be verified as accurate (confidence 4) [694E0653], AccurateRip returned [68F63A2B]Track 2 cannot be verified as accurate (confidence 5) [B475D346], AccurateRip returned [A1FEB24C]Track 3 cannot be verified as accurate (confidence 5) [924FCEE2], AccurateRip returned [A125C5F0]Track 4 cannot be verified as accurate (confidence 5) [81DB4B3E], AccurateRip returned [93252F12]Track 5 cannot be verified as accurate (confidence 5) [E74F5F70], AccurateRip returned [A03E7F52]Track 6 cannot be verified as accurate (confidence 5) [94302135], AccurateRip returned [E1C9F799]Track 7 cannot be verified as accurate (confidence 5) [2C1DD82C], AccurateRip returned [93F37200]Track 8 cannot be verified as accurate (confidence 5) [5AC1317E], AccurateRip returned [F6066F08]Track 9 cannot be verified as accurate (confidence 5) [C268CF19], AccurateRip returned [41A7E8E5]Track 10 cannot be verified as accurate (confidence 5) [67AE8A92], AccurateRip returned [64AD9BAA]Track 11 cannot be verified as accurate (confidence 5) [F6BD2A4F], AccurateRip returned [0ABEE673]Track 12 cannot be verified as accurate (confidence 5) [C19EB56C], AccurateRip returned [97A52C12]Track 13 cannot be verified as accurate (confidence 5) [6744CEC0], AccurateRip returned [61DD4518]Track 14 cannot be verified as accurate (confidence 5) [68BF7137], AccurateRip returned [71C6AC8B]Track 15 cannot be verified as accurate (confidence 5) [3F5D0EC7], AccurateRip returned [24D4A125]Track 16 cannot be verified as accurate (confidence 5) [13018F89], AccurateRip returned [5A6AABF9]Track 17 cannot be verified as accurate (confidence 5) [4B68A035], AccurateRip returned [1DB3DCC5]Track 18 cannot be verified as accurate (confidence 5) [DF1A6D82], AccurateRip returned [B4513B40]Track 19 cannot be verified as accurate (confidence 5) [54A4F93B], AccurateRip returned [1212B269]Track 20 cannot be verified as accurate (confidence 5) [EE5A2567], AccurateRip returned [BE1A850B]Track 21 cannot be verified as accurate (confidence 5) [92102E83], AccurateRip returned [4892CF8B]Track 22 cannot be verified as accurate (confidence 5) [D09A5D3F], AccurateRip returned [4E5C23ED]Track 23 cannot be verified as accurate (confidence 5) [C263A88B], AccurateRip returned [20BFDF7D]Track 24 cannot be verified as accurate (confidence 5) [FD4120E0], AccurateRip returned [1A39C70C]Track 25 cannot be verified as accurate (confidence 5) [103F8591], AccurateRip returned [0CDC799E]
No tracks could be verified as accurateYou may have a different pressing from the one(s) in the database
End of status report
==== Log checksum 86C848731018AA9DDF9F3CFCFB2760B364ACA268046568986EC11D2779374A2C ====
Доп. информация: Всего в списке сочинений Римского-Корсакова 79 песен и романсов. Первые 12 романсов он создал в 1865-66 году, ещё четыре в 1867 году, и ещё шесть в 1870-ом. С 1877 по 1883 год композитор наряду с многими другими произведениями создал ещё 14 романсов. Потом был значительный перерыв в 14 лет, после которого Р-К вернулся к созданию романсов. Очень плодотворным был 1897 год - за весенние и летние месяцы этого года им было написано более сорока романсов. Безусловно, особенно великолепны романсы 60-80-х годов, написанные в период расцвета "Могучей кучки", едва ли не каждый из них — вдохновенное открытие молодым художником новых граней жизни. В их характере преобладает картинно-изобразительная звукопись, пейзажность, пряная экзотическая ориенталистика, необыкновенная гармоническая смелость, свежесть и непосредственность лирических настроений. Романсы 90х, напротив - пластичные, стройные композиции с довольно сглаженной экспрессией и подчёркнуто вокальной мелодикой (по признанию композитора он "старался быть ближе к Глинке"). Это своего рода русский классицизм, тоже по-своему интересный. Музыку романсов Николай Андреевич писал на слова относительно небольшой группы поэтов, видимо самых любимых. Среди них прежде всего А. C. Пушкин, А.Майков, А.К. Толстой, А. Фет, М.Ю. Лермонтов, Л. Мей.

Полный список песен и романсов Н.А. Римского-Корсакова с указанием авторов стихов

1. Щекою к щеке ты моей приложись… Слова Г. Гейне. Перевод М. Михайлова
2. Пленившись розой, соловей… Слова А. Кольцова
3. Колыбельная песня. Слова Л. Мея
4. Из слез моих много, малютка, родилось душистых цветов… Слова Г. Гейне. Перевод М. Михайлова
5. Ель и пальма. Слова Г. Гейне. Перевод М. Михайлова
6. Южная ночь. Слова Н. Щербины
7. Ночевала тучка золотая… Слова М. Лермонтова
8.На холмах Грузии… Слова А. Пушкина
9. Что в имени тебе моем? Слова А. Пушкина
10. Гонец. Слова Г. Гейне. Перевод М. Михайлова
11. В темной роще замолк соловей… Слова И. Никитина
12. Тихо вечер догорает… Слова А. Фета
13. Мой голос для тебя и ласковый и томный… Слова А. Пушкина
14. Еврейская песня. Слова Л. Мея
15. Свитезянка. Слова А. Мицкевича. Перевод Л. Мея
16. Как небеса, твой взор блистае… Слова М. Лермонтова
17. Где ты, там мысль моя летает… Слова неизвестного автора
18. Ночь. Слова А. Плещеева
19. Тайна. Слова Шамиссо
20. Встань, сойди! Давно денница… Слова Л. Мея
21. В царство розы и вина – приди!.. Слова А. Фета
22. Я верю: я любим… Слова А. Пушкина
23. К моей песне. Слова Г. Гейне. Перевод М. Михайлова
24. Когда гляжу тебе вглаза… Слова Г. Гейне. Перевод М. Михайлова
25. В порыве нежности сердечной… Слова Дж. Байрона. Перевод И. Козлова
26. Заклинание Слова А. Пушкина
27. Для берегов отчизны дальной… Слова А. Пушкина
28. Песня Зюлейки. Слова Дж. Байрона. Перевод И. Козлова
29. Горними тихо летела душа небесами… Слова А.К. толстого
30. Эхо. Слова Фр. Копе. Перевод С. Андреевского
31. Ты и вы. Слова А. Пушкина
32. Прости! Не помни дней паденья… Слова Н. Некрасова
33. О, если б ты могла… Слова А.К.Толстого
34. Запад гаснет в дали бледно - розовой… Слова А.К. Толстого
35. На нивы желтые нисходит тишина… Слова А.К. Толстого
36. Усни, печальный друг… Слова А.К. Толстого
37. Когда волнуется желтеющая нива... Слова М. Лермонтова
38. По небу полуночи… Слова М. Лермонтова
39. О чем в тиши ночей… Слова А. Майкова
40. Я в гроте ждал тебя Слова А. Майкова
41. Неспящих солнце, грустная звезда… Слова Дж. Байрона, перевод А.К. Толстого
42. Мне грустно… Слова М. Лермонтова
43. Люблю тебя, месяц… Слова А. Майкова
44. Посмотри в свой вертоград… Слова А. Майкова
45. Шепот, робкое дыханье… Слова А. Фета
46. Я пришел к тебе с приветом… Слова А.Фета
47. Редеет облаков летучая гряда… Слова А. Пушкина
48. Моя баловница. Слова А. Мицкевича, перевод Л. Мея
49. Звонче жаворонка пенье… Слова А.К. Толстого
50. Не ветер, вея с высоты… Слова А.К. Толстого
51. Свеж и душист твой роскошный венок… Слова А.Фета
52. То было раннею весной… Слова А.К. Толстого
53. Эхо. Слова А.Пушкина
54. Искусство. Слова А. Майкова
55. Октава. Слова А. Майкова
56. Сомнение. Слова А. Майкова
57. Поэт. Слова А. Пушкина
58. Дробится, и плещет, и брызжет волна… Слова А.К. Толстого
59. Не пенится море, не плещет волна… Слова А.К. Толстого
60. Колышется море; волна за волной… Слова А.К. Толстого
61. Не верь мне, друг… Слова А.К. Толстого
62. Вздымаются волны… Слова А.К. Толстого
63. Анчар – древо смерти. Слова А. Пушкина
64. Пророк. Слова А.Пушкина
65. Дева и солнце. Слова А. Майкова
66. Певец. Слова А. Майкова
67. Тихо море голубое! Слова А. Майкова
68. Еще я полн, о друг мой милый… Слова А.Майкова
69. Медлительно влекутся дни мои… Слова А. Пушкина
70. Не пой, красавица, при мне… Слова А.Пушкина
71. Цветок засохший… Слова А. Пушкина
72. Красавица. Слова А. Пушкина
73. Ненастный день потух… Слова А. Пушкина
74. Пробужденье. Слова А.Пушкина
75. Гречанке. Слова А.Пушкина
76. Сновидение. Слова А.Пушкина
77. Я умер от счастья… Слова Л. Уланда
78. Нимфа. Слова А. Майкова
79. Сон в летнюю ночью Слова А. Майкова



Показать сообщения:    

Текущее время: 08-Дек 19:08

Часовой пояс: UTC + 3


Вы не можете начинать темы
Вы не можете отвечать на сообщения
Вы не можете редактировать свои сообщения
Вы не можете удалять свои сообщения
Вы не можете голосовать в опросах
Вы не можете прикреплять файлы к сообщениям
Вы не можете скачивать файлы