(Romantic / Classical) [CD] Сергей Рахманинов (Rachmaninov, Rachmaninoff) - Романсы (Исполняет Н.Ю. Сучкова) - 2001, FLAC (image+.cue), lossless


 

[Цитировать]

Сергей Рахманинов - Романсы (Н.Ю. Сучкова)
Жанр: Romantic / Classical
Носитель: CD
Год выпуска диска: 1998, 2001
Страна: Russia
Производитель диска: Boheme Music/Stereo & Video ‎– S&V 042
Аудио кодек: FLAC
Тип рипа: image+.cue
Битрейт аудио: lossless
Продолжительность: 60:34
Наличие сканов в содержимом раздачи:
Трэклист:
01. Фёдор Тютчев / Весенние воды (1:48)
02. Эдвард Пайерон / Апрель! Вешний праздничный день... (1:34)
03. Даниил Ратгауз / Эти летние ночи... (1:50)
04. Дмитрий Мережковский / О нет, молю, не уходи... (1:52)
05. Михаил Янов / Утро (1:49)
06. Афанасий Фет / В молчаньи ночи тайной (2:13)
07. Алексей К. Толстой / Не верь мне, друг... (1:17)
08. Алексей Плещеев, из Гёте / Молитва (3:14)
09. Алексей Апухтин / О, не грусти... (2:50)
10. Н. Минский / Она, как полдень, хороша... (2:47)
11. Н. Минский / В моей душе... (2:07)
12. Жан Мари Гюйо / Сумерки (1:39)
13. Екатерина Бекетова / Сирень (1:43)
14. Г. Галина / Здесь хорошо... (1:44)
15. Семён Надсон / Мелодия (2:35)
16. Дмитрий Мережковский / Пощады я молю (1:30)
17. Г. Галина / Как мне больно (1:45)
18. Даниил Ратгауз / Ночь (2:55)
19. Иван Бунин / Я опять одинок (2:05)
20. Алексей Кольцов / Кольцо (2:28)
21. Иван Бунин / Ночь печальна (2:01)
22. Яков Полонский / Вчера мы встретились (2:32)
23. Даниил Ратгауз / Проходит всё (1:57)
24. Александр Блок, из Саакяна / Ночью в саду у меня... (2:00)
25. Андрей Белый / К ней... (2:10)
26. Игорь Северянин / Маргаритки (2:26)
27. Фёдор Сологуб / Сон (3:22)
28. Афанасий Фет / Какое счастье (2:06)
Доп. информация: http://www.discogs.com/Сергей-Рахманинов-Романсы/release/2316144

Отчёт EAC

Exact Audio Copy V0.99 prebeta 5 from 4. May 2009
EAC extraction logfile from 28. June 2014, 8:39
Сергей Рахманинов / Романсы (S&V-042)
Used drive : PLEXTOR CD-R PX-W4824A Adapter: 1 ID: 1
Read mode : SecureUtilize accurate stream : YesDefeat audio cache : YesMake use of C2 pointers : No
Read offset correction : 98Overread into Lead-In and Lead-Out : YesFill up missing offset samples with silence : YesDelete leading and trailing silent blocks : NoNull samples used in CRC calculations : YesUsed interface : Installed external ASPI interface
Used output format : User Defined EncoderSelected bitrate : 32 kBit/sQuality : LowAdd ID3 tag : NoCommand line compressor : C:\Program Files\Exact Audio Copy\Flac\flac.exeAdditional command line options : -8 -V -T "Artist=%a" -T "Album=%g" -T "Date=%y" -T "Genre=%m" -T "COMMENT=EAC FLAC -8" %s
TOC of the extracted CD
Track | Start | Length | Start sector | End sector --------------------------------------------------------- 1 | 0:00.00 | 1:48.54 | 0 | 8153 2 | 1:48.54 | 1:34.64 | 8154 | 15267 3 | 3:23.43 | 1:50.47 | 15268 | 23564 4 | 5:14.15 | 1:52.65 | 23565 | 32029 5 | 7:07.05 | 1:49.68 | 32030 | 40272 6 | 8:56.73 | 2:13.20 | 40273 | 50267 7 | 11:10.18 | 1:17.51 | 50268 | 56093 8 | 12:27.69 | 3:14.07 | 56094 | 70650 9 | 15:42.01 | 2:50.73 | 70651 | 83473 10 | 18:32.74 | 2:47.07 | 83474 | 96005 11 | 21:20.06 | 2:07.26 | 96006 | 105556 12 | 23:27.32 | 1:39.61 | 105557 | 113042 13 | 25:07.18 | 1:43.06 | 113043 | 120773 14 | 26:50.24 | 1:44.30 | 120774 | 128603 15 | 28:34.54 | 2:35.54 | 128604 | 140282 16 | 31:10.33 | 1:30.44 | 140283 | 147076 17 | 32:41.02 | 1:45.30 | 147077 | 154981 18 | 34:26.32 | 2:55.28 | 154982 | 168134 19 | 37:21.60 | 2:05.58 | 168135 | 177567 20 | 39:27.43 | 2:28.34 | 177568 | 188701 21 | 41:56.02 | 2:01.71 | 188702 | 197847 22 | 43:57.73 | 2:32.24 | 197848 | 209271 23 | 46:30.22 | 1:57.56 | 209272 | 218102 24 | 48:28.03 | 2:00.17 | 218103 | 227119 25 | 50:28.20 | 2:10.43 | 227120 | 236912 26 | 52:38.63 | 2:26.63 | 236913 | 247925 27 | 55:05.51 | 3:22.40 | 247926 | 263115 28 | 58:28.16 | 2:06.43 | 263116 | 272608
Range status and errors
Selected range
Filename E:\Muzons\Сергей Рахманинов - Романсы (1998)\Сергей Рахманинов - Романсы (S&V-042).wav
Peak level 100.0 % Range quality 100.0 % Test CRC 212D365C Copy CRC 212D365C Copy OK
No errors occurred
AccurateRip summary
Track 1 accurately ripped (confidence 4) [92C9736C]Track 2 accurately ripped (confidence 4) [F593DA52]Track 3 accurately ripped (confidence 4) [C01EF566]Track 4 accurately ripped (confidence 4) [C9950F90]Track 5 accurately ripped (confidence 4) [474CBAEE]Track 6 accurately ripped (confidence 4) [EC1D1B8D]Track 7 accurately ripped (confidence 4) [FC85E92D]Track 8 accurately ripped (confidence 4) [63AFF9AC]Track 9 accurately ripped (confidence 4) [2F429291]Track 10 accurately ripped (confidence 4) [A5574515]Track 11 accurately ripped (confidence 4) [96AC8380]Track 12 accurately ripped (confidence 4) [95CA301B]Track 13 accurately ripped (confidence 4) [4249E7D2]Track 14 accurately ripped (confidence 4) [CC258380]Track 15 accurately ripped (confidence 4) [41176324]Track 16 accurately ripped (confidence 4) [0FFB59A3]Track 17 accurately ripped (confidence 4) [72919B0F]Track 18 accurately ripped (confidence 4) [D99D9A6A]Track 19 accurately ripped (confidence 4) [3F812C53]Track 20 accurately ripped (confidence 4) [43FD5E91]Track 21 accurately ripped (confidence 4) [79102647]Track 22 accurately ripped (confidence 4) [625910B0]Track 23 accurately ripped (confidence 4) [FF8BEB4A]Track 24 accurately ripped (confidence 4) [0886AD69]Track 25 accurately ripped (confidence 4) [7F0358B2]Track 26 accurately ripped (confidence 4) [BC6776C9]Track 27 accurately ripped (confidence 4) [4F6889E4]Track 28 accurately ripped (confidence 4) [4935D4F9]
All tracks accurately ripped
End of status report

.cue

REM GENRE ClassicalREM DATE 1998REM DISCID 710E321CREM COMMENT "ExactAudioCopy v0.99pb5"PERFORMER "Сергей Рахманинов"TITLE "Романсы (S&V-042)"FILE "Сергей Рахманинов - Романсы (S&V-042).flac" WAVE TRACK 01 AUDIO TITLE "Фёдор Тютчев / Весенние воды" PERFORMER "Сергей Рахманинов" INDEX 01 00:00:00 TRACK 02 AUDIO TITLE "Эдвард Пайерон / Апрель! Вешний праздничный день..." PERFORMER "Сергей Рахманинов" INDEX 01 01:48:54 TRACK 03 AUDIO TITLE "Даниил Ратгауз / Эти летние ночи..." PERFORMER "Сергей Рахманинов" INDEX 01 03:23:43 TRACK 04 AUDIO TITLE "Дмитрий Мережковский / О нет, молю, не уходи..." PERFORMER "Сергей Рахманинов" INDEX 01 05:14:15 TRACK 05 AUDIO TITLE "Михаил Янов / Утро" PERFORMER "Сергей Рахманинов" INDEX 01 07:07:05 TRACK 06 AUDIO TITLE "Афанасий Фет / В молчаньи ночи тайной" PERFORMER "Сергей Рахманинов" INDEX 01 08:56:73 TRACK 07 AUDIO TITLE "Алексей К. Толстой / Не верь мне, друг..." PERFORMER "Сергей Рахманинов" INDEX 01 11:10:18 TRACK 08 AUDIO TITLE "Алексей Плещеев, из Гёте / Молитва" PERFORMER "Сергей Рахманинов" INDEX 01 12:27:69 TRACK 09 AUDIO TITLE "Алексей Апухтин / О, не грусти..." PERFORMER "Сергей Рахманинов" INDEX 01 15:42:01 TRACK 10 AUDIO TITLE "Н. Минский / Она, как полдень, хороша..." PERFORMER "Сергей Рахманинов" INDEX 01 18:32:74 TRACK 11 AUDIO TITLE "Н. Минский / В моей душе..." PERFORMER "Сергей Рахманинов" INDEX 01 21:20:06 TRACK 12 AUDIO TITLE "Жан Мари Гюйо / Сумерки" PERFORMER "Сергей Рахманинов" INDEX 01 23:27:32 TRACK 13 AUDIO TITLE "Екатерина Бекетова / Сирень" PERFORMER "Сергей Рахманинов" INDEX 01 25:07:18 TRACK 14 AUDIO TITLE "Г. Галина / Здесь хорошо..." PERFORMER "Сергей Рахманинов" INDEX 01 26:50:24 TRACK 15 AUDIO TITLE "Семён Надсон / Мелодия" PERFORMER "Сергей Рахманинов" INDEX 01 28:34:54 TRACK 16 AUDIO TITLE "Дмитрий Мережковский / Пощады я молю" PERFORMER "Сергей Рахманинов" INDEX 01 31:10:33 TRACK 17 AUDIO TITLE "Г. Галина / Как мне больно" PERFORMER "Сергей Рахманинов" INDEX 01 32:41:02 TRACK 18 AUDIO TITLE "Даниил Ратгауз / Ночь" PERFORMER "Сергей Рахманинов" INDEX 01 34:26:32 TRACK 19 AUDIO TITLE "Иван Бунин / Я опять одинок" PERFORMER "Сергей Рахманинов" INDEX 01 37:21:60 TRACK 20 AUDIO TITLE "Алексей Кольцов / Кольцо" PERFORMER "Сергей Рахманинов" INDEX 01 39:27:43 TRACK 21 AUDIO TITLE "Иван Бунин / Ночь печальна" PERFORMER "Сергей Рахманинов" INDEX 01 41:56:02 TRACK 22 AUDIO TITLE "Яков Полонский / Вчера мы встретились" PERFORMER "Сергей Рахманинов" INDEX 01 43:57:73 TRACK 23 AUDIO TITLE "Даниил Ратгауз / Проходит всё" PERFORMER "Сергей Рахманинов" INDEX 01 46:30:22 TRACK 24 AUDIO TITLE "Александр Блок, из Саакяна / Ночью в саду у меня..." PERFORMER "Сергей Рахманинов" INDEX 01 48:28:03 TRACK 25 AUDIO TITLE "Андрей Белый / К ней..." PERFORMER "Сергей Рахманинов" INDEX 01 50:28:20 TRACK 26 AUDIO TITLE "Игорь Северянин / Маргаритки" PERFORMER "Сергей Рахманинов" INDEX 01 52:38:63 TRACK 27 AUDIO TITLE "Фёдор Сологуб / Сон" PERFORMER "Сергей Рахманинов" INDEX 01 55:05:51 TRACK 28 AUDIO TITLE "Афанасий Фет / Какое счастье" PERFORMER "Сергей Рахманинов" INDEX 01 58:28:16
источник: erro, журнал "Stereo & Video" 2001/10

скрытый текст

Не стал рипать более новой версией EAC, по причине необходимости вписывать названия, в ручную (в V0.99 всё отобразилось нормально)

скрытый текст




Показать сообщения:    

Текущее время: 22-Янв 04:41

Часовой пояс: UTC + 3


Вы не можете начинать темы
Вы не можете отвечать на сообщения
Вы не можете редактировать свои сообщения
Вы не можете удалять свои сообщения
Вы не можете голосовать в опросах
Вы не можете прикреплять файлы к сообщениям
Вы не можете скачивать файлы