(Classical) Dame Kiri Te Kanawa - Kiri Sings George Gershwin (The New Princess Theater Orchestra, John McGlinn) - 1990, FLAC (tracks+.cue) lossless


 

[Цитировать]

Dame Kiri Te Kanawa - Kiri Sings George Gershwin (The New Princess Theater Orchestra, John McGlinn)
Жанр: Classical
Год издания диска: 1990
Издатель (лейбл): Warner Classics
Номер по каталогу: D 170258
Аудиокодек: FLAC
Тип рипа: tracks+.cue
Битрейт аудио: lossless - mp3
Продолжительность: 46’05
Источник: собственный рип
Наличие сканов в содержимом раздачи: да
Исполнители:
Dame Kiri Te Kanawa - Soprano
The New Princess Theater Orchestra
John McGlinn
Треклист:
1. George White's Scandals of 1924: Somebody loves me 3:01
2. Primrose: Boy wanted (Ira Gershwin & Desmond Carter: orch. Frank Sadler) 2:34
3. A Damsel in Distress: Things are looking up (Ira Gershwin: orch. Robert Russell Bennett) 3:22
4. Goldwyn Follies: Love walked in 3:08
5. Goldwyn Follies: Love is here to stay 2:46
6. Oh, Kay!: Someone to watch over me (Ira Gershwin: orch. Hilding Anderson) 2:43
7. Girl Crazy: But not for me (Ira Gershwin: orch. Robert Russell Bennett) 2:56
8. Porgy and Bess: Summertime (DuBose Hayward) 2:42
9. Strike Up the Band (first version): The man I love (Ira Gershwin: orch. Williams Daly) 3:33
10. Strike Up The Band (second version): Soon (Ira Gershwin: orch. Sol Berkowitz) 2:53
11. Strike Up the Band (first version): Meadow Serenade [unpublished] (Ira Gershwin: orch. Maurice Peress & Larry Moore) 2:46
12. A Damsel in Distress: Nice work if you can get it (Ira Gershwin: orch. Robert Russell Bennett) 2:43
13. By Strauss (Ira Gershwin: orch. Russell Warner) 2:50
14. Girl Crazy: Embraceable you (Ira Gershwin: orch. Robert Russell Bennett) 4:33
15. Girl Crazy: I got rhythm (Ira Gershwin: orch. Robert Russell Bennett) 3:31

LOG EAC:

Exact Audio Copy V1.0 beta 3 from 29. August 2011
EAC extraction logfile from 19. June 2014, 15:24
Kiri Te Kanawa / Kiri Sings Gershwin
Used drive : PIONEER DVD-RW DVR-221L Adapter: 2 ID: 0
Read mode : SecureUtilize accurate stream : YesDefeat audio cache : YesMake use of C2 pointers : No
Read offset correction : 6Overread into Lead-In and Lead-Out : NoFill up missing offset samples with silence : YesDelete leading and trailing silent blocks : NoNull samples used in CRC calculations : YesUsed interface : Native Win32 interface for Win NT & 2000Gap handling : Appended to previous track
Used output format : User Defined EncoderSelected bitrate : 768 kBit/sQuality : HighAdd ID3 tag : NoCommand line compressor : C:\Program Files\Exact Audio Copy\Flac\flac.exeAdditional command line options : -6 -V -T "ARTIST=%artist%" -T "TITLE=%title%" -T "ALBUM=%albumtitle%" -T "DATE=%year%" -T "TRACKNUMBER=%tracknr%" -T "GENRE=%genre%" -T "COMMENT=%comment%" -T "ALBUMARTIST=%albuminterpret%" -T "COMPOSER=%composer%" -T "DISCNUMBER=%cdnumber%" -T "TOTALDISCS=%totalcds%" -T "TOTALTRACKS=%numtracks%" %source% -o %dest%
TOC of the extracted CD
Track | Start | Length | Start sector | End sector --------------------------------------------------------- 1 | 0:00.00 | 3:01.58 | 0 | 13632 2 | 3:01.58 | 2:34.10 | 13633 | 25192 3 | 5:35.68 | 3:23.47 | 25193 | 40464 4 | 8:59.40 | 3:09.03 | 40465 | 54642 5 | 12:08.43 | 2:46.27 | 54643 | 67119 6 | 14:54.70 | 2:43.50 | 67120 | 79394 7 | 17:38.45 | 2:56.03 | 79395 | 92597 8 | 20:34.48 | 2:42.30 | 92598 | 104777 9 | 23:17.03 | 3:33.50 | 104778 | 120802 10 | 26:50.53 | 2:53.02 | 120803 | 133779 11 | 29:43.55 | 2:47.08 | 133780 | 146312 12 | 32:30.63 | 2:43.60 | 146313 | 158597 13 | 35:14.48 | 2:50.70 | 158598 | 171417 14 | 38:05.43 | 4:34.07 | 171418 | 191974 15 | 42:39.50 | 3:31.68 | 191975 | 207867
Track 1
Filename D:\EAC\01 - Somebody Loves Me.wav
Pre-gap length 0:00:02.00
Peak level 95.5 % Extraction speed 2.5 X Track quality 100.0 % Test CRC C859CC76 Copy CRC C859CC76 Cannot be verified as accurate (confidence 1) [E09FE972], AccurateRip returned [B190BDEA] (AR v2) Copy OK
Track 2
Filename D:\EAC\02 - Boy Wanted.wav
Pre-gap length 0:00:01.40
Peak level 91.1 % Extraction speed 2.6 X Track quality 100.0 % Test CRC 5A2011F0 Copy CRC 5A2011F0 Accurately ripped (confidence 1) [30A7ACED] (AR v1) Copy OK
Track 3
Filename D:\EAC\03 - Things Are Looking Up.wav
Pre-gap length 0:00:01.63
Peak level 95.5 % Extraction speed 3.0 X Track quality 100.0 % Test CRC D8E7D853 Copy CRC D8E7D853 Accurately ripped (confidence 1) [C0AA1054] (AR v1) Copy OK
Track 4
Filename D:\EAC\04 - Love Walked In.wav
Pre-gap length 0:00:02.10
Peak level 97.7 % Extraction speed 3.2 X Track quality 100.0 % Test CRC 111D2BD0 Copy CRC 111D2BD0 Accurately ripped (confidence 1) [BE784906] (AR v1) Copy OK
Track 5
Filename D:\EAC\05 - Love Is Here To Stay.wav
Pre-gap length 0:00:02.48
Peak level 90.2 % Extraction speed 2.3 X Track quality 99.9 % Test CRC 072ABD63 Copy CRC 072ABD63 Accurately ripped (confidence 1) [3F23CF53] (AR v1) Copy OK
Track 6
Filename D:\EAC\06 - Someone To Watch Over Me.wav
Pre-gap length 0:00:02.05
Peak level 91.4 % Extraction speed 2.4 X Track quality 99.9 % Test CRC 14B8F924 Copy CRC 14B8F924 Accurately ripped (confidence 1) [31BBE606] (AR v1) Copy OK
Track 7
Filename D:\EAC\07 - But Not For Me.wav
Pre-gap length 0:00:02.52
Peak level 97.7 % Extraction speed 3.6 X Track quality 100.0 % Test CRC 75CAEEDA Copy CRC 75CAEEDA Accurately ripped (confidence 1) [1A2474F2] (AR v1) Copy OK
Track 8
Filename D:\EAC\08 - Summertime.wav
Pre-gap length 0:00:02.28
Peak level 79.8 % Extraction speed 3.7 X Track quality 100.0 % Test CRC 36CB6FE0 Copy CRC 36CB6FE0 Accurately ripped (confidence 1) [F3803809] (AR v1) Copy OK
Track 9
Filename D:\EAC\09 - The Man I Love.wav
Pre-gap length 0:00:02.05
Peak level 80.2 % Extraction speed 4.0 X Track quality 100.0 % Test CRC 7C3DD33F Copy CRC 7C3DD33F Accurately ripped (confidence 1) [4DA1CC58] (AR v1) Copy OK
Track 10
Filename D:\EAC\10 - Soon.wav
Pre-gap length 0:00:02.45
Peak level 94.5 % Extraction speed 4.0 X Track quality 100.0 % Test CRC AE0A5D51 Copy CRC AE0A5D51 Accurately ripped (confidence 1) [653ECBC8] (AR v1) Copy OK
Track 11
Filename D:\EAC\11 - Meadow Serenade.wav
Pre-gap length 0:00:02.60
Peak level 54.1 % Extraction speed 4.1 X Track quality 100.0 % Test CRC 44EDC05A Copy CRC 44EDC05A Accurately ripped (confidence 1) [A09D36EC] (AR v1) Copy OK
Track 12
Filename D:\EAC\12 - Nice Work If You Can Get It.wav
Pre-gap length 0:00:02.50
Peak level 97.7 % Extraction speed 4.2 X Track quality 100.0 % Test CRC 60406138 Copy CRC 60406138 Accurately ripped (confidence 1) [05FE74FA] (AR v1) Copy OK
Track 13
Filename D:\EAC\13 - By Strauss.wav
Pre-gap length 0:00:02.35
Peak level 95.5 % Extraction speed 4.4 X Track quality 100.0 % Test CRC 788E2A4B Copy CRC 788E2A4B Accurately ripped (confidence 1) [C3227358] (AR v1) Copy OK
Track 14
Filename D:\EAC\14 - Embraceable You.wav
Pre-gap length 0:00:03.25
Peak level 90.8 % Extraction speed 4.5 X Track quality 100.0 % Test CRC FBED4F07 Copy CRC FBED4F07 Accurately ripped (confidence 1) [0EA59A58] (AR v1) Copy OK
Track 15
Filename D:\EAC\15 - I Got Rhythm.wav
Pre-gap length 0:00:03.05
Peak level 97.7 % Extraction speed 4.9 X Track quality 100.0 % Test CRC 86EA00E3 Copy CRC 86EA00E3 Cannot be verified as accurate (confidence 1) [4098CAE5], AccurateRip returned [F2312BC7] (AR v2) Copy OK
13 трек(и) скопированы точно 2 трек(и) не удалось проверить на точность
Some tracks could not be verified as accurate
No errors occurred
End of status report
==== Log checksum CD1AB02F2F646C15426BFCD20E3C458538A096566BF7596155731CAAD271691C ====

LOG (.CUE):

REM GENRE ClassicalREM DATE 1990REM DISCID CA0AD30FREM COMMENT "ExactAudioCopy v1.0b3"PERFORMER "Kiri Te Kanawa"TITLE "Kiri Sings Gershwin"FILE "01 - Somebody Loves Me.wav" WAVE TRACK 01 AUDIO TITLE "Somebody Loves Me" PERFORMER "Kiri Te Kanawa" INDEX 01 00:00:00 TRACK 02 AUDIO TITLE "Boy Wanted" PERFORMER "Kiri Te Kanawa" INDEX 00 03:00:18FILE "02 - Boy Wanted.wav" WAVE INDEX 01 00:00:00 TRACK 03 AUDIO TITLE "Things Are Looking Up" PERFORMER "Kiri Te Kanawa" INDEX 00 02:32:22FILE "03 - Things Are Looking Up.wav" WAVE INDEX 01 00:00:00 TRACK 04 AUDIO TITLE "Love Walked In" PERFORMER "Kiri Te Kanawa" INDEX 00 03:21:37FILE "04 - Love Walked In.wav" WAVE INDEX 01 00:00:00 TRACK 05 AUDIO TITLE "Love Is Here To Stay" PERFORMER "Kiri Te Kanawa" INDEX 00 03:06:30FILE "05 - Love Is Here To Stay.wav" WAVE INDEX 01 00:00:00 TRACK 06 AUDIO TITLE "Someone To Watch Over Me" PERFORMER "Kiri Te Kanawa" INDEX 00 02:44:22FILE "06 - Someone To Watch Over Me.wav" WAVE INDEX 01 00:00:00 TRACK 07 AUDIO TITLE "But Not For Me" PERFORMER "Kiri Te Kanawa" INDEX 00 02:40:73FILE "07 - But Not For Me.wav" WAVE INDEX 01 00:00:00 TRACK 08 AUDIO TITLE "Summertime" PERFORMER "Kiri Te Kanawa" INDEX 00 02:53:50FILE "08 - Summertime.wav" WAVE INDEX 01 00:00:00 TRACK 09 AUDIO TITLE "The Man I Love" PERFORMER "Kiri Te Kanawa" INDEX 00 02:40:25FILE "09 - The Man I Love.wav" WAVE INDEX 01 00:00:00 TRACK 10 AUDIO TITLE "Soon" PERFORMER "Kiri Te Kanawa" INDEX 00 03:31:05FILE "10 - Soon.wav" WAVE INDEX 01 00:00:00 TRACK 11 AUDIO TITLE "Meadow Serenade" PERFORMER "Kiri Te Kanawa" INDEX 00 02:50:17FILE "11 - Meadow Serenade.wav" WAVE INDEX 01 00:00:00 TRACK 12 AUDIO TITLE "Nice Work If You Can Get It" PERFORMER "Kiri Te Kanawa" INDEX 00 02:44:33FILE "12 - Nice Work If You Can Get It.wav" WAVE INDEX 01 00:00:00 TRACK 13 AUDIO TITLE "By Strauss" PERFORMER "Kiri Te Kanawa" INDEX 00 02:41:25FILE "13 - By Strauss.wav" WAVE INDEX 01 00:00:00 TRACK 14 AUDIO TITLE "Embraceable You" PERFORMER "Kiri Te Kanawa" INDEX 00 02:47:45FILE "14 - Embraceable You.wav" WAVE INDEX 01 00:00:00 TRACK 15 AUDIO TITLE "I Got Rhythm" PERFORMER "Kiri Te Kanawa" INDEX 00 04:31:02FILE "15 - I Got Rhythm.wav" WAVE INDEX 01 00:00:00
mp3



Показать сообщения:    

Текущее время: 09-Дек 12:42

Часовой пояс: UTC + 3


Вы не можете начинать темы
Вы не можете отвечать на сообщения
Вы не можете редактировать свои сообщения
Вы не можете удалять свои сообщения
Вы не можете голосовать в опросах
Вы не можете прикреплять файлы к сообщениям
Вы не можете скачивать файлы