(Classical, medieval) Masters of the Rolls - Music by English Composers of the 14th Century - Gothic Voices, Christopher Page - 2012, FLAC (image+.cue) lossless


 

[Цитировать]

Masters of the Rolls - Music by English Composers of the 14th Century - Gothic Voices, Christopher Page
Жанр: Classical, medieval
Страна-производитель диска: UK
Год издания диска: 2012
Издатель (лейбл): Hyperion
Номер по каталогу: CDH55364
Дата записи: 1999
Аудиокодек: FLAC
Тип рипа: image+.cue
Битрейт аудио: lossless
Продолжительность: 59:04
Источник: собственный рип
Наличие сканов в содержимом раздачи: да
Треклист:
Music by English Composers of the 14th Century
[1] Ab ora summa nuncius
[2] Inter usitata / Inter tot & tales
[3] Vexilla regni prodeunt
[4] Singularis laudis digna
[5] Dulcia dona redemptoris
[6] Summum regem honoremus
[7] Omnis terra / Habenti dabitur
[8] Copiose caritatis
[9] Missus Gabriel de celis
[10] Pura, placens / Parfundement plure
[11] Letetur celi curia
[12] Salve regina
[13] Jesu fili virginis
[14] Jesu fili / Jesu lumen / Jesu fili virginis
[15] Sospitati dat egrotos
[16] Exultemus & letemur
[17] Stella maris illustrans omnia
[18] Venit dilectus meus
[19] Pange lingua
[20] O sponsa Dei electa
[21] Generosa Jesse plantula
[22] Musicorum collegio / In templo Dei
Исполнители:
Gothic Voices
Christopher Page
director

Лог создания рипа

Exact Audio Copy V1.0 beta 3 from 29. August 2011
EAC extraction logfile from 16. June 2014, 18:18
Gothic Voices, Christopher Page / Masters of the Rolls - Music by English Composers of the 14th Century
Used drive : HL-DT-STDVDRRW GWA-4164B Adapter: 5 ID: 0
Read mode : SecureUtilize accurate stream : YesDefeat audio cache : YesMake use of C2 pointers : No
Read offset correction : 102Overread into Lead-In and Lead-Out : NoFill up missing offset samples with silence : YesDelete leading and trailing silent blocks : NoNull samples used in CRC calculations : YesUsed interface : Native Win32 interface for Win NT & 2000
Used output format : User Defined EncoderSelected bitrate : 896 kBit/sQuality : HighAdd ID3 tag : NoCommand line compressor : C:\Program Files\Exact Audio Copy\FLAC\FLAC.EXEAdditional command line options : -V -8 %source%
TOC of the extracted CD
Track | Start | Length | Start sector | End sector --------------------------------------------------------- 1 | 0:00.41 | 3:15.40 | 41 | 14705 2 | 3:16.06 | 1:51.56 | 14706 | 23086 3 | 5:07.62 | 3:56.52 | 23087 | 40838 4 | 9:04.39 | 5:18.60 | 40839 | 64748 5 | 14:23.24 | 2:09.20 | 64749 | 74443 6 | 16:32.44 | 1:51.52 | 74444 | 82820 7 | 18:24.21 | 2:56.39 | 82821 | 96059 8 | 21:20.60 | 1:19.32 | 96060 | 102016 9 | 22:40.17 | 2:03.36 | 102017 | 111277 10 | 24:43.53 | 2:28.00 | 111278 | 122377 11 | 27:11.53 | 3:28.39 | 122378 | 138016 12 | 30:40.17 | 2:49.05 | 138017 | 150696 13 | 33:29.22 | 0:53.04 | 150697 | 154675 14 | 34:22.26 | 2:10.72 | 154676 | 164497 15 | 36:33.23 | 1:41.44 | 164498 | 172116 16 | 38:14.67 | 2:04.70 | 172117 | 181486 17 | 40:19.62 | 2:19.11 | 181487 | 191922 18 | 42:38.73 | 5:01.04 | 191923 | 214501 19 | 47:40.02 | 4:16.51 | 214502 | 233752 20 | 51:56.53 | 1:37.66 | 233753 | 241093 21 | 53:34.44 | 2:42.39 | 241094 | 253282 22 | 56:17.08 | 2:47.11 | 253283 | 265818
Range status and errors
Selected range
Filename D:\temp\Music\CDH55364 - Masters of the Rolls\Masters of the Rolls.wav
Peak level 99.9 % Extraction speed 3.5 X Range quality 100.0 % Test CRC 0DE27BE2 Copy CRC 0DE27BE2 Copy OK
No errors occurred
AccurateRip summary
Track 1 accurately ripped (confidence 2) [86C21D2B] (AR v2)Track 2 accurately ripped (confidence 2) [BC94879B] (AR v2)Track 3 accurately ripped (confidence 2) [5EAE350E] (AR v2)Track 4 accurately ripped (confidence 2) [2EF63B23] (AR v2)Track 5 accurately ripped (confidence 2) [090B80B5] (AR v2)Track 6 accurately ripped (confidence 2) [063B58B1] (AR v2)Track 7 accurately ripped (confidence 2) [340B58C1] (AR v2)Track 8 accurately ripped (confidence 2) [2067C917] (AR v2)Track 9 accurately ripped (confidence 2) [D5DCAD2E] (AR v2)Track 10 accurately ripped (confidence 2) [576A25AC] (AR v2)Track 11 accurately ripped (confidence 2) [5D5A9773] (AR v2)Track 12 accurately ripped (confidence 2) [FA004F9D] (AR v2)Track 13 accurately ripped (confidence 2) [2F095FAC] (AR v2)Track 14 accurately ripped (confidence 2) [9B9B282B] (AR v2)Track 15 accurately ripped (confidence 2) [3C6E7879] (AR v2)Track 16 accurately ripped (confidence 2) [AC673E54] (AR v2)Track 17 accurately ripped (confidence 2) [67710ED1] (AR v2)Track 18 accurately ripped (confidence 2) [D2F87BB2] (AR v2)Track 19 accurately ripped (confidence 2) [13F9707A] (AR v2)Track 20 accurately ripped (confidence 2) [B6511EA8] (AR v2)Track 21 accurately ripped (confidence 2) [080B8C2D] (AR v2)Track 22 accurately ripped (confidence 2) [45DE8295] (AR v2)
All tracks accurately ripped
End of status report
==== Log checksum 8F2719CAD0D2C1CD959ABD0F53B1FF441F0BD7342EFA44B216FF44577D6F876B ====



Показать сообщения:    

Текущее время: 08-Дек 01:17

Часовой пояс: UTC + 3


Вы не можете начинать темы
Вы не можете отвечать на сообщения
Вы не можете редактировать свои сообщения
Вы не можете удалять свои сообщения
Вы не можете голосовать в опросах
Вы не можете прикреплять файлы к сообщениям
Вы не можете скачивать файлы