(Classical) Salve Regina - Newly discovered pieces by Monteverdi and Frescobaldi - Il Pegaso, Maurizio Croci - 2012, FLAC (image+.cue) lossless


 

[Цитировать]

Salve Regina - Newly discovered pieces by Monteverdi and Frescobaldi - Il Pegaso, Maurizio Croci
Жанр: Classical
Год издания диска: 2012
Издатель (лейбл): Brilliant Classics
Номер по каталогу: 94286
Дата записи: 2012
Аудиокодек: FLAC
Тип рипа: image+.cue
Битрейт аудио: lossless
Продолжительность: 54:37
Источник: собственный рип
Наличие сканов в содержимом раздачи: да
Треклист:
Claudio Monteverdi (1567-1643)
Girolamo Frescobaldi (1583-1643)
Newly discovered pieces
[1] Monteverdi: Regina Caeli a due tenori e basso
[2] Frescobaldi: Aria detta 'La Frescobalda' - Monicha - Balletto
[3] Monteverdi: Salve Regina a due tenori e basso
[4] Frescobaldi: Toccata
[5] Monteverdi: Salve Regina, tenore solo
[6] Bellerofonte Castaldi (c.1581-1649): Capriccetto Galante
[7] Monteverdi: Salve Regina a due tenori
[8] Frescobaldi: Aria detta 'La Frescobalda'
[9] Monteverdi: Laudate Dominum, basso solo
[10] Frescobaldi: Toccata con il contrabbasso ovvero pedale
[11] Monteverdi: Salve Regina, tenore solo
[12] Frescobaldi: Balletto
[13] Frescobaldi: Corrente
[14] Frescobaldi: Recercar secondo
[15] Monteverdi: Laudate Dominum, tenore solo
[16] Frescobaldi / Anonymous: Toccata avanti la Romanesca - Romanesca
[17] Frescobaldi: Partite sopra Passacagli
[18] Frescobaldi: Toccata
[19] Monteverdi: Salve Regina a due tenori e basso
Исполнители:
Il Pegaso
Mirko Guadagnini tenor
Makoto Sakurada tenor
Christian Immler bass
Evangelina Mascardi theorbo
Maurizio Croci organ & artistic direction

Лог создания рипа

Exact Audio Copy V1.0 beta 3 from 29. August 2011
EAC extraction logfile from 9. June 2014, 17:43
Il Pegaso, Maurizio Croci / Monteverdi, Frescobaldi - Newly discovered pieces
Used drive : HL-DT-STDVDRRW GWA-4164B Adapter: 5 ID: 0
Read mode : SecureUtilize accurate stream : YesDefeat audio cache : YesMake use of C2 pointers : No
Read offset correction : 102Overread into Lead-In and Lead-Out : NoFill up missing offset samples with silence : YesDelete leading and trailing silent blocks : NoNull samples used in CRC calculations : YesUsed interface : Native Win32 interface for Win NT & 2000
Used output format : User Defined EncoderSelected bitrate : 896 kBit/sQuality : HighAdd ID3 tag : NoCommand line compressor : C:\Program Files\Exact Audio Copy\FLAC\FLAC.EXEAdditional command line options : -V -8 %source%
TOC of the extracted CD
Track | Start | Length | Start sector | End sector --------------------------------------------------------- 1 | 0:00.00 | 3:03.55 | 0 | 13779 2 | 3:03.55 | 2:23.30 | 13780 | 24534 3 | 5:27.10 | 4:05.08 | 24535 | 42917 4 | 9:32.18 | 0:49.48 | 42918 | 46640 5 | 10:21.66 | 3:29.38 | 46641 | 62353 6 | 13:51.29 | 1:45.44 | 62354 | 70272 7 | 15:36.73 | 4:48.68 | 70273 | 91940 8 | 20:25.66 | 3:15.57 | 91941 | 106622 9 | 23:41.48 | 2:40.25 | 106623 | 118647 10 | 26:21.73 | 2:16.47 | 118648 | 128894 11 | 28:38.45 | 5:02.45 | 128895 | 151589 12 | 33:41.15 | 1:44.65 | 151590 | 159454 13 | 35:26.05 | 0:47.17 | 159455 | 162996 14 | 36:13.22 | 4:38.43 | 162997 | 183889 15 | 40:51.65 | 4:11.32 | 183890 | 202746 16 | 45:03.22 | 2:51.24 | 202747 | 215595 17 | 47:54.46 | 2:15.72 | 215596 | 225792 18 | 50:10.43 | 0:51.18 | 225793 | 229635 19 | 51:01.61 | 3:35.42 | 229636 | 245802
Range status and errors
Selected range
Filename D:\temp\Music\Monteverdi, Frescobaldi - Newly discovered pieces\Monteverdi, Frescobaldi - Newly discovered pieces.wav
Peak level 97.7 % Extraction speed 2.6 X Range quality 100.0 % Test CRC E5BED6BB Copy CRC E5BED6BB Copy OK
No errors occurred
AccurateRip summary
Track 1 accurately ripped (confidence 2) [E6106011] (AR v2)Track 2 accurately ripped (confidence 1) [AD2B6B27] (AR v2)Track 3 accurately ripped (confidence 1) [2124ACE5] (AR v2)Track 4 accurately ripped (confidence 2) [1E09E8A5] (AR v2)Track 5 accurately ripped (confidence 2) [ED425BD2] (AR v2)Track 6 accurately ripped (confidence 2) [6921974C] (AR v2)Track 7 accurately ripped (confidence 2) [9BDAEC39] (AR v2)Track 8 accurately ripped (confidence 2) [8AB91411] (AR v2)Track 9 accurately ripped (confidence 2) [60FC3EEA] (AR v2)Track 10 accurately ripped (confidence 2) [306183DF] (AR v2)Track 11 accurately ripped (confidence 1) [E1E0AA32] (AR v2)Track 12 accurately ripped (confidence 1) [9EC17A0F] (AR v2)Track 13 accurately ripped (confidence 2) [A6F7886B] (AR v2)Track 14 accurately ripped (confidence 2) [A45FA212] (AR v2)Track 15 accurately ripped (confidence 2) [F39D64F5] (AR v2)Track 16 accurately ripped (confidence 2) [0B459889] (AR v2)Track 17 accurately ripped (confidence 2) [25265E31] (AR v2)Track 18 accurately ripped (confidence 2) [E54B9939] (AR v2)Track 19 accurately ripped (confidence 2) [702FB732] (AR v2)
All tracks accurately ripped
End of status report
==== Log checksum 7E3D6CFCD8856EA486151EE1855A57B19830E91D4E606453EDAF5077A2E4C914 ====



Показать сообщения:    

Текущее время: 10-Дек 00:20

Часовой пояс: UTC + 3


Вы не можете начинать темы
Вы не можете отвечать на сообщения
Вы не можете редактировать свои сообщения
Вы не можете удалять свои сообщения
Вы не можете голосовать в опросах
Вы не можете прикреплять файлы к сообщениям
Вы не можете скачивать файлы