(Classical) Nightingale - Japanese Art Songs - Yoshikazu Mera, Kikuko Ogura - 1997, FLAC (image+.cue) lossless


 

[Цитировать]

Nightingale - Japanese Art Songs - Yoshikazu Mera, Kikuko Ogura
Жанр: Classical
Страна-производитель диска: Sweden
Год издания диска: 1997
Издатель (лейбл): BIS
Номер по каталогу: BIS-CD-889
Дата записи: 1997
Аудиокодек: FLAC
Тип рипа: image+.cue
Битрейт аудио: lossless
Продолжительность: 57:09
Источник: собственный рип
Наличие сканов в содержимом раздачи: да
Треклист:
Nakata Yoshinao (b.1923)
[1] Cherry Blossoms Lane
Yamada Kosaku (1886-1965)
[2]-[6] Song of AIYAN
Dan Ikuma (b.1924)
[7]-[12] Six Songs for Children
Hayasaka Fumio (1914-1955)
[13] Uguisu (Nightingale)
Fukai Shiro (1907-1952)
[14]-[16] Japanese Flute
Hayashi Hikaru (b.1931)
[17]-[20] Four Songs of Dusk
Bekku Sadao (b.1922)
[21] Cherry Blossoms Lane
Исполнители:
Yoshikazu Mera counter-tenor
Kikuko Ogura piano

Лог создания рипа

Exact Audio Copy V1.0 beta 3 from 29. August 2011
EAC extraction logfile from 24. March 2014, 17:46
Yoshikazu Mera, Kikuko Ogura / Nightingale - Japanese Art Songs
Used drive : HL-DT-STDVDRRW GWA-4164B Adapter: 5 ID: 0
Read mode : SecureUtilize accurate stream : YesDefeat audio cache : YesMake use of C2 pointers : No
Read offset correction : 102Overread into Lead-In and Lead-Out : NoFill up missing offset samples with silence : YesDelete leading and trailing silent blocks : NoNull samples used in CRC calculations : YesUsed interface : Native Win32 interface for Win NT & 2000
Used output format : User Defined EncoderSelected bitrate : 896 kBit/sQuality : HighAdd ID3 tag : NoCommand line compressor : C:\Program Files\Exact Audio Copy\FLAC\FLAC.EXEAdditional command line options : -V -8 %source%
TOC of the extracted CD
Track | Start | Length | Start sector | End sector --------------------------------------------------------- 1 | 0:00.00 | 2:31.25 | 0 | 11349 2 | 2:31.25 | 2:04.50 | 11350 | 20699 3 | 4:36.00 | 1:38.50 | 20700 | 28099 4 | 6:14.50 | 1:33.25 | 28100 | 35099 5 | 7:48.00 | 3:47.00 | 35100 | 52124 6 | 11:35.00 | 2:17.42 | 52125 | 62441 7 | 13:52.42 | 1:50.33 | 62442 | 70724 8 | 15:43.00 | 1:47.00 | 70725 | 78749 9 | 17:30.00 | 2:51.62 | 78750 | 91636 10 | 20:21.62 | 1:40.13 | 91637 | 99149 11 | 22:02.00 | 1:41.25 | 99150 | 106749 12 | 23:43.25 | 2:49.50 | 106750 | 119474 13 | 26:33.00 | 4:27.00 | 119475 | 139499 14 | 31:00.00 | 2:44.37 | 139500 | 151836 15 | 33:44.37 | 6:18.38 | 151837 | 180224 16 | 40:03.00 | 1:55.37 | 180225 | 188886 17 | 41:58.37 | 1:41.38 | 188887 | 196499 18 | 43:40.00 | 3:38.57 | 196500 | 212906 19 | 47:18.57 | 3:05.13 | 212907 | 226794 20 | 50:23.70 | 2:11.05 | 226795 | 236624 21 | 52:35.00 | 4:34.00 | 236625 | 257174
Range status and errors
Selected range
Filename D:\temp\Music\BIS-CD-0889 - Nightingale - Japanese Art Songs - Yoshikazu Mera, Kikuko Ogura\Nightingale - Japanese Art Songs.wav
Peak level 92.5 % Extraction speed 3.0 X Range quality 99.9 % Test CRC 363DAE91 Copy CRC 363DAE91 Copy OK
No errors occurred
AccurateRip summary
Track 1 accurately ripped (confidence 5) [AA78FF79] (AR v2)Track 2 accurately ripped (confidence 5) [94F314F5] (AR v2)Track 3 accurately ripped (confidence 5) [BDAC6EBB] (AR v2)Track 4 accurately ripped (confidence 5) [71402E0B] (AR v2)Track 5 accurately ripped (confidence 5) [B7348CA2] (AR v2)Track 6 accurately ripped (confidence 5) [79E46725] (AR v2)Track 7 accurately ripped (confidence 5) [7E7AAF7D] (AR v2)Track 8 accurately ripped (confidence 5) [4CE8D690] (AR v2)Track 9 accurately ripped (confidence 5) [0716D52B] (AR v2)Track 10 accurately ripped (confidence 5) [542C1807] (AR v2)Track 11 accurately ripped (confidence 5) [4EF243F4] (AR v2)Track 12 accurately ripped (confidence 5) [5495818B] (AR v2)Track 13 accurately ripped (confidence 5) [27E95137] (AR v2)Track 14 accurately ripped (confidence 5) [57820B83] (AR v2)Track 15 accurately ripped (confidence 5) [8671095F] (AR v2)Track 16 accurately ripped (confidence 5) [D83BA4BE] (AR v2)Track 17 accurately ripped (confidence 5) [7E20C5C2] (AR v2)Track 18 accurately ripped (confidence 5) [1928187E] (AR v2)Track 19 accurately ripped (confidence 5) [739014EB] (AR v2)Track 20 accurately ripped (confidence 5) [B9076A38] (AR v2)Track 21 accurately ripped (confidence 5) [730EFF7B] (AR v2)
All tracks accurately ripped
End of status report
==== Log checksum 690A169FC3CB00AD9DFFD727E103AB5BD078A4F0BC734F11A32BAAFD8315D63B ====



Показать сообщения:    

Текущее время: 05-Дек 01:24

Часовой пояс: UTC + 3


Вы не можете начинать темы
Вы не можете отвечать на сообщения
Вы не можете редактировать свои сообщения
Вы не можете удалять свои сообщения
Вы не можете голосовать в опросах
Вы не можете прикреплять файлы к сообщениям
Вы не можете скачивать файлы