(Classical, romance) Сергей Рахманинов (Rachmaninov, Rachmaninoff) - Романсы - Дмитрий Хворостовский, Ivari Ilja - 2012, FLAC (image+.cue) lossless


 

[Цитировать]

Сергей Рахманинов - Романсы - Дмитрий Хворостовский, Ivari Ilja
Жанр: Classical, romance
Страна-производитель диска: Finland
Год издания диска: 2012
Издатель (лейбл): Ondine
Номер по каталогу: ODE 1207-2
Дата записи: 2011
Аудиокодек: FLAC
Тип рипа: image+.cue
Битрейт аудио: lossless
Продолжительность: 64:21
Источник: собственный рип
Наличие сканов в содержимом раздачи: да
Треклист:
Сергей Васильевич Рахманинов (1873-1943)
[1] Мы отдохнем (А.П.Чехов) Op.26/3
[2] Ты помнишь ли вечер? (А.К.Толстой) (1893)
[3] О, нет, молю, не уходи (Д.С.Мережковский) Op.4/1
[4] Утро (М.Л.Янов) Op.4/2
[5] В молчаньи ночи тайной (А.А.Фет) Op.4/3
[6] Уж ты, нива моя (А.К.Толстой) Op.4/5
[7] Дитя! Как цветок ты прекрасна (А.Н.Плещеев) Op.8/2
[8] Сон (А.Н.Плещеев) Op.8/5
[9] Я был у ней (А.В.Кольцов) Op.14/4
[10] Я жду тебя (М.А.Давыдова) Op.14/1
[11] Не верь мне, друг (А.К.Толстой) Op.14/7
[12] Она, как полдень, хороша (Н.М.Минский) Op.14/9
[13] Весенние воды (Ф.И.Тютчев) Op.14/11
[14] В моей душе (Н.М.Минский) Op.14/10
[15] Пора! (С.Я.Надсон) Op.14/12
[16] Они отвечали (Л.А.Мей) Op.21/4
[17] Отрывок из Мюссе (А.Н.Апухтин) Op.21/6
[18] Здесь хорошо (Г.А.Галина) Op.21/7
[19] Как мне больно (Г.А.Галина) Op.21/12
[20] Все отнял у меня (Ф.И.Тютчев) Op.26/2
[21] Вчера мы встретились (Я.П.Полонский) Op.26/13
[22] Проходит все (Д.М.Ратгауз) Op.26/15
[23] Ночь печальна (И.А.Бунин) Op.26/12
[24] Я опять одинок (И.А.Бунин) Op.26/9
[25] У врат обители святой (М.Ю.Лермонтов) (1890)
[26] Христос воскрес (Д.С.Мережковский) Op.26/6
Исполнители:
Дмитрий Хворостовский баритон
Ivari Ilja фортепиано

Лог создания рипа

Exact Audio Copy V1.0 beta 3 from 29. August 2011
EAC extraction logfile from 10. June 2014, 1:33
Dmitri Hvorostovsky, Ivari Ilja / Rachmaninov - Romances
Used drive : HL-DT-STDVDRAM GSA-4083N Adapter: 1 ID: 0
Read mode : SecureUtilize accurate stream : YesDefeat audio cache : YesMake use of C2 pointers : No
Read offset correction : 667Overread into Lead-In and Lead-Out : NoFill up missing offset samples with silence : YesDelete leading and trailing silent blocks : NoNull samples used in CRC calculations : YesUsed interface : Native Win32 interface for Win NT & 2000
Used output format : User Defined EncoderSelected bitrate : 896 kBit/sQuality : HighAdd ID3 tag : NoCommand line compressor : C:\Program Files\Exact Audio Copy\Flac\flac.exeAdditional command line options : -V -8 %source%
TOC of the extracted CD
Track | Start | Length | Start sector | End sector --------------------------------------------------------- 1 | 0:00.00 | 2:35.26 | 0 | 11650 2 | 2:35.26 | 3:02.20 | 11651 | 25320 3 | 5:37.46 | 1:52.30 | 25321 | 33750 4 | 7:30.01 | 2:31.25 | 33751 | 45100 5 | 10:01.26 | 2:54.35 | 45101 | 58185 6 | 12:55.61 | 4:49.67 | 58186 | 79927 7 | 17:45.53 | 2:16.63 | 79928 | 90190 8 | 20:02.41 | 1:34.07 | 90191 | 97247 9 | 21:36.48 | 1:31.53 | 97248 | 104125 10 | 23:08.26 | 2:01.16 | 104126 | 113216 11 | 25:09.42 | 1:44.41 | 113217 | 121057 12 | 26:54.08 | 3:09.39 | 121058 | 135271 13 | 30:03.47 | 2:18.55 | 135272 | 145676 14 | 32:22.27 | 3:11.71 | 145677 | 160072 15 | 35:34.23 | 2:02.27 | 160073 | 169249 16 | 37:36.50 | 2:01.03 | 169250 | 178327 17 | 39:37.53 | 2:14.54 | 178328 | 188431 18 | 41:52.32 | 2:13.33 | 188432 | 198439 19 | 44:05.65 | 1:54.35 | 198440 | 207024 20 | 46:00.25 | 1:29.35 | 207025 | 213734 21 | 47:29.60 | 2:55.54 | 213735 | 226913 22 | 50:25.39 | 2:10.73 | 226914 | 236736 23 | 52:36.37 | 2:30.27 | 236737 | 248013 24 | 55:06.64 | 2:08.07 | 248014 | 257620 25 | 57:14.71 | 3:39.01 | 257621 | 274046 26 | 60:53.72 | 3:26.63 | 274047 | 289559
Range status and errors
Selected range
Filename J:\New Music\Rachmaninov - Romances - Hvorostovsky\Rachmaninov - Romances.wav
Peak level 97.2 % Extraction speed 3.3 X Range quality 100.0 % Test CRC 57D65AF4 Copy CRC 57D65AF4 Copy OK
No errors occurred
AccurateRip summary
Track 1 accurately ripped (confidence 3) [522075F8] (AR v2)Track 2 accurately ripped (confidence 3) [2C44E9A5] (AR v2)Track 3 accurately ripped (confidence 3) [D4E9D259] (AR v2)Track 4 accurately ripped (confidence 3) [08185D0C] (AR v2)Track 5 accurately ripped (confidence 3) [C20ED146] (AR v2)Track 6 accurately ripped (confidence 3) [85D8932E] (AR v2)Track 7 accurately ripped (confidence 3) [8945E9A0] (AR v2)Track 8 accurately ripped (confidence 3) [F9EF2F8E] (AR v2)Track 9 accurately ripped (confidence 3) [E308F70B] (AR v2)Track 10 accurately ripped (confidence 3) [D0DA9418] (AR v2)Track 11 accurately ripped (confidence 3) [6CBB6767] (AR v2)Track 12 accurately ripped (confidence 3) [34C864E3] (AR v2)Track 13 accurately ripped (confidence 3) [72A9C9C9] (AR v2)Track 14 accurately ripped (confidence 3) [11484E0E] (AR v2)Track 15 accurately ripped (confidence 3) [F41877F3] (AR v2)Track 16 accurately ripped (confidence 3) [E5E70E01] (AR v2)Track 17 accurately ripped (confidence 3) [1532038B] (AR v2)Track 18 accurately ripped (confidence 3) [24AF4F77] (AR v2)Track 19 accurately ripped (confidence 3) [79BDEE12] (AR v2)Track 20 accurately ripped (confidence 3) [6D88AF00] (AR v2)Track 21 accurately ripped (confidence 3) [9542CBEC] (AR v2)Track 22 accurately ripped (confidence 3) [14A237FC] (AR v2)Track 23 accurately ripped (confidence 3) [F261D7D9] (AR v2)Track 24 accurately ripped (confidence 3) [581F0404] (AR v2)Track 25 accurately ripped (confidence 3) [79173154] (AR v2)Track 26 accurately ripped (confidence 3) [B1D52F9E] (AR v2)
All tracks accurately ripped
End of status report
==== Log checksum 609B8B8C6B267E9B9749D700CF336E49E011C17BA715E1EEA4CB6075618B3F4A ====



Показать сообщения:    

Текущее время: 04-Дек 11:13

Часовой пояс: UTC + 3


Вы не можете начинать темы
Вы не можете отвечать на сообщения
Вы не можете редактировать свои сообщения
Вы не можете удалять свои сообщения
Вы не можете голосовать в опросах
Вы не можете прикреплять файлы к сообщениям
Вы не можете скачивать файлы