(Classical/Vocal) Валентин Сильвестров - Ступени, Утренняя песня, Вестник / Valentin Silvestrov - Steps, Morning Song, Messenger (Светлана Савенко, Юрий Полубелов / Svetlana Savenko, Yuri Polubelov) - 2007, FLAC (image+.cue) lossless


 

[Цитировать]

Валентин Сильвестров - Ступени (Светлана Савенко, Юрий Полубелов)
Жанр: Classical/Vocal
Страна-производитель диска: Россия
Год издания диска: 2007
Издатель (лейбл): Московская государственная консерватория
Номер по каталогу: SMC CD 0095
Дата записи: 2001
Аудиокодек: FLAC
Тип рипа: image+.cue
Битрейт аудио: lossless
Продолжительность: 70:57
Источник: собственный рип
Наличие сканов в содержимом раздачи: да
Треклист:
Валентин Сильвестров (*1937)
[1] Утренняя песня (Сильвестров) Александру Кнайфелю 3.22
Ступени, вокальный цикл из 11 песен для сопрано и фортепиано на стихи Александра Блока, Александра Пушкина, Федора Тютчева, Джона Китса, Федора Сологуба, Евгения Баратынского, Осипа Мандельштама и анонимные
[2] Посвящение (Блок) Ларисе Бондаренко 4.40
[3] Элегия (аноним) Святославу Крутикову 3.46
[4] Душа моя (Сологуб) Олегу Киве 4.31
[5] Тени сизые смесились (Тютчев) Борису Буевскому 3.17
[6] На что вы, дни! (Баратынский) Инне Алексеевне Барсовой 4.54
[7] Элегия (Безумных лет) (Пушкин) Эдисону Денисову 5.43
[8] О вещая душа моя (Тютчев) Я.С.Друскину 3.40
[9] Сестры - тяжесть и нежность (Мандельштам) Светлане Савенко 6.33
[10] К сну (Китс) Нине Александровне Герасимовой-Персидской 5.17
[11] Последняя любовь (Тютчев) Юрию Смирнову 5.23
[12] Я слово позабыл (Мандельштам) Ю.Г.Кону 10.40
[13] Вестник-1996 для фортепиано (с абсолютно закрытой крышкой) Ларисе Бондаренко 9.05
Исполнители:
Светлана Савенко, сопрано ([1]-[12])
Юрий Полубелов, фортепиано

Лог создания рипа

Exact Audio Copy V1.0 beta 3 from 29. August 2011
Отчёт EAC об извлечении, выполненном 20. октября 2013, 18:20
Svetlana Savenko, Yuri Polubelov / Valentin Silvestrov - Steps
Дисковод: HL-DT-STDVDRAM GT33N Adapter: 1 ID: 0
Режим чтения : ДостоверностьИспользование точного потока : ДаОтключение кэша аудио : ДаИспользование указателей C2 : Нет
Коррекция смещения при чтении : 103Способность читать области Lead-in и Lead-out : НетЗаполнение пропущенных сэмплов тишиной : ДаУдаление блоков с тишиной в начале и конце : НетПри вычислениях CRC использовались нулевые сэмплы : ДаИнтерфейс : Встроенный Win32-интерфейс для Win NT/2000
Выходной формат : Пользовательский кодировщикВыбранный битрейт : 1024 kBit/sКачество : ВысокийДобавление ID3-тега : ДаУтилита сжатия : C:\Program Files (x86)\Exact Audio Copy\Flac\flac.exeДополнительные параметры : -8 -V -T "ALBUMARTIST=%albumartist%" -T "ALBUM=%albumtitle%" -T "DATE=%year%" -T "TRACKTOTAL=%numtracks%" -T "GENRE=%genre%" -T "COMMENT=%comment%" -T "PERFORMER=%albuminterpret%" -T "COMPOSER=%composer%" %source% -o %dest%
TOC извлечённого CD
Трек | Старт | Длительность | Начальный сектор | Конечный сектор --------------------------------------------------------------------- 1 | 0:00.00 | 3:22.00 | 0 | 15149 2 | 3:22.00 | 4:40.59 | 15150 | 36208 3 | 8:02.59 | 3:46.42 | 36209 | 53200 4 | 11:49.26 | 4:31.53 | 53201 | 73578 5 | 16:21.04 | 3:17.60 | 73579 | 88413 6 | 19:38.64 | 4:54.70 | 88414 | 110533 7 | 24:33.59 | 5:43.22 | 110534 | 136280 8 | 30:17.06 | 3:40.38 | 136281 | 152818 9 | 33:57.44 | 6:33.25 | 152819 | 182318 10 | 40:30.69 | 5:17.00 | 182319 | 206093 11 | 45:47.69 | 5:23.62 | 206094 | 230380 12 | 51:11.56 | 10:40.33 | 230381 | 278413 13 | 61:52.14 | 9:05.10 | 278414 | 319298
Характеристики диапазона извлечения и сообщения об ошибках
Выбранный диапазон
Имя файла E:\Музыка\Silvestrov\Valentin Silvestrov - Steps.wav
Пиковый уровень 89.5 % Скорость извлечения 2.3 X Качество диапазона 100.0 % CRC теста 3C6EB51F CRC копии 3C6EB51F Копирование... OK
Ошибок не произошло
AccurateRip: сводка
Трек 1 отсутствует в базе данныхТрек 2 отсутствует в базе данныхТрек 3 отсутствует в базе данныхТрек 4 отсутствует в базе данныхТрек 5 отсутствует в базе данныхТрек 6 отсутствует в базе данныхТрек 7 отсутствует в базе данныхТрек 8 отсутствует в базе данныхТрек 9 отсутствует в базе данныхТрек 10 отсутствует в базе данныхТрек 11 отсутствует в базе данныхТрек 12 отсутствует в базе данныхТрек 13 отсутствует в базе данных
Ни одного трека нет в базе AccurateRip
Конец отчёта
==== Контрольная сумма отчёта A7240BF286CA10E199048F60C0972C49D6B458E71F2E25D3BD378D2B04D32674 ====

Содержание индексной карты (.CUE)

REM GENRE ClassicalREM DATE 2007REM DISCID AE10A10DREM COMMENT "ExactAudioCopy v1.0b3"PERFORMER "Svetlana Savenko, Yuri Polubelov"TITLE "Valentin Silvestrov - Steps"FILE "Valentin Silvestrov - Steps.flac" WAVE TRACK 01 AUDIO TITLE "Morning Song (Silvestrov)" PERFORMER "Svetlana Savenko, Yuri Polubelov" INDEX 01 00:00:00 TRACK 02 AUDIO TITLE "Steps, a Vocal cycle of 11 songs: I. Dedication (Blok)" PERFORMER "Svetlana Savenko, Yuri Polubelov" INDEX 00 03:15:51 INDEX 01 03:22:00 TRACK 03 AUDIO TITLE "II. Elegy (anon.)" PERFORMER "Svetlana Savenko, Yuri Polubelov" INDEX 01 08:02:59 TRACK 04 AUDIO TITLE "III. My soul (Sologub)" PERFORMER "Svetlana Savenko, Yuri Polubelov" INDEX 01 11:49:26 TRACK 05 AUDIO TITLE "IV. The blue-grey shadows have moved (Tyutchev)" PERFORMER "Svetlana Savenko, Yuri Polubelov" INDEX 01 16:21:04 TRACK 06 AUDIO TITLE "V. What are you for, days? (Baratynsky)" PERFORMER "Svetlana Savenko, Yuri Polubelov" INDEX 01 19:38:64 TRACK 07 AUDIO TITLE "VI. Elegy (Pushkin)" PERFORMER "Svetlana Savenko, Yuri Polubelov" INDEX 01 24:33:59 TRACK 08 AUDIO TITLE "VII. Oh, my prophetic soul (Tyutchev)" PERFORMER "Svetlana Savenko, Yuri Polubelov" INDEX 01 30:17:06 TRACK 09 AUDIO TITLE "VIII. Sisters - heaviness and tenderness (Mandelstam)" PERFORMER "Svetlana Savenko, Yuri Polubelov" INDEX 01 33:57:44 TRACK 10 AUDIO TITLE "IX. To the Dream (Keats)" PERFORMER "Svetlana Savenko, Yuri Polubelov" INDEX 01 40:30:69 TRACK 11 AUDIO TITLE "X. Last Love (Tyutchev)" PERFORMER "Svetlana Savenko, Yuri Polubelov" INDEX 01 45:47:69 TRACK 12 AUDIO TITLE "XI. I have forgotten the word I wanted to say (Mandelstam)" PERFORMER "Svetlana Savenko, Yuri Polubelov" INDEX 01 51:11:56 TRACK 13 AUDIO TITLE "The Messenger-1996 for piano with the absolutely closed top" PERFORMER "Yuri Polubelov" INDEX 00 61:47:12 INDEX 01 61:52:14



Показать сообщения:    

Текущее время: 11-Дек 01:28

Часовой пояс: UTC + 3


Вы не можете начинать темы
Вы не можете отвечать на сообщения
Вы не можете редактировать свои сообщения
Вы не можете удалять свои сообщения
Вы не можете голосовать в опросах
Вы не можете прикреплять файлы к сообщениям
Вы не можете скачивать файлы