(Classical/Vocal) Валентин Сильвестров - Тихие песни, Песни на стихи Мандельштама / Valentin Silvestrov - Silent Songs (Сергей Яковенко, Илья Шепс / Sergey Yakovenko, Ilya Scheps) ECM - 2004, FLAC (image+.cue) lossless


 

[Цитировать]

Валентин Сильвестров - Тихие песни, Песни на стихи Мандельштама / Valentin Silvestrov - Silent Songs
Жанр: Classical/Vocal
Страна-производитель диска: Германия
Год издания диска: 2004
Издатель (лейбл): ECM
Номер по каталогу: 1898/99
Дата записи: 1986
Аудиокодек: FLAC
Тип рипа: image+.cue
Битрейт аудио: lossless
Продолжительность: 52:25 + 66:50
Источник: собственный рип
Наличие сканов в содержимом раздачи: да
Треклист:
Валентин Сильвестров (*1937)
"Тихие песни"
Вокальный цикл в четырех частях на стихи поэтов-классиков для баритона и фортепиано (1974—1977)
Диск 1
I. Пять песен
01. Болящий дух врачует песнопенье (ст. Е. Баратынского) 3:25
02. Были бури, непогоды (ст. Е. Баратынского) 3:26
03. La belle dame sans merci (ст. Дж. Китса, пер. В. Левика) 6:59
04. Унылая пора, очей очарованье (ст. А. Пушкина) 3:09
05. Прощай, свiте, прощай, земле (ст. Т. Шевченко) 5:03
II. Одиннадцать песен
06. Что в имени тебе моём (ст. А. Пушкина) 2:31
07. Я скажу тебе с последней прямотой (ст. О. Мандельштама) 3:36
08. Пью за здравие Мери (ст. А. Пушкина) 4:23
09. Зимняя дорога (ст. А. Пушкина) 5:21
10. Белеет парус одинокий (ст. М. Лермонтова) 4:20
11. Я встретил вас (ст. Ф. Тютчева) 6:06
12. Островок (ст. П.-Б. Шелли, пер. А. Голембы) 3:52
Диск 2
01. Несказанное, синее, нежное (ст. С. Есенина) 5:51
02. Осенняя песня (ст. С. Есенина) 4:25
03. Топи да болота (ст. С. Есенина) 4:52
04. Зимний вечер (ст. А. Пушкина) 6:00
III. Три песни на стихи М. Лермонтова
05. Когда волнуется желтеющая нива (ст. М. Лермонтова) 4:31
06. Выхожу один я на дорогу (ст. М. Лермонтова) 5:31
07. Горные вершины (ст. М. Лермонтова) 4:51
IV. Пять песен
08. Элегия "Мне не спится, нет огня..." (ст. А. Пушкина) 3:38
09. Хорал "Все отнял у меня казнящий Бог" (ст. Ф. Тютчева) 2:10
10. Медитация "Пора, мой друг, пора!" (ст. А. Пушкина) 4:30
11. Ода "И Шуберт на воде..." (ст. О. Мандельштама) 3:52
12. Постлюдия "О милых спутниках" (ст. В. Жуковского) 3:18
Четыре песни на стихи Мандельштама (1982)
13. Колют ресницы (ст. О. Мандельштама) 4:28
14. Я не знаю, с каких пор (ст. О. Мандельштама) 1:38
15. За гремучую доблесть грядущих веков (ст. О. Мандельштама) 3:25
16. Поит дубы холодная криница (ст. О. Мандельштама) 3:45
Исполнители:
Сергей Яковенко, баритон
Илья Шепс, фортепиано (Тихие песни)
Валентин Сильвестров, фортепиано (Песни на стихи Мандельштама)

Лог создания рипаCD1

Exact Audio Copy V1.0 beta 3 from 29. August 2011
Отчёт EAC об извлечении, выполненном 19. октября 2013, 0:25
Sergey Yakovenko, Ilya Scheps / Valentin Silvestrov - Silent Songs CD1
Дисковод: HL-DT-STDVDRAM GT33N Adapter: 1 ID: 0
Режим чтения : ДостоверностьИспользование точного потока : ДаОтключение кэша аудио : ДаИспользование указателей C2 : Нет
Коррекция смещения при чтении : 103Способность читать области Lead-in и Lead-out : НетЗаполнение пропущенных сэмплов тишиной : ДаУдаление блоков с тишиной в начале и конце : НетПри вычислениях CRC использовались нулевые сэмплы : ДаИнтерфейс : Встроенный Win32-интерфейс для Win NT/2000
Выходной формат : Пользовательский кодировщикВыбранный битрейт : 1024 kBit/sКачество : ВысокийДобавление ID3-тега : ДаУтилита сжатия : C:\Program Files (x86)\Exact Audio Copy\Flac\flac.exeДополнительные параметры : -8 -V -T "ALBUMARTIST=%albumartist%" -T "ALBUM=%albumtitle%" -T "DATE=%year%" -T "TRACKTOTAL=%numtracks%" -T "GENRE=%genre%" -T "COMMENT=%comment%" -T "PERFORMER=%albuminterpret%" -T "COMPOSER=%composer%" %source% -o %dest%
TOC извлечённого CD
Трек | Старт | Длительность | Начальный сектор | Конечный сектор --------------------------------------------------------------------- 1 | 0:00.00 | 3:25.47 | 0 | 15421 2 | 3:25.47 | 3:36.13 | 15422 | 31634 3 | 7:01.60 | 6:59.20 | 31635 | 63079 4 | 14:01.05 | 3:09.12 | 63080 | 77266 5 | 17:10.17 | 5:03.40 | 77267 | 100031 6 | 22:13.57 | 2:31.23 | 100032 | 111379 7 | 24:45.05 | 3:36.22 | 111380 | 127601 8 | 28:21.27 | 4:23.60 | 127602 | 147386 9 | 32:45.12 | 5:21.10 | 147387 | 171471 10 | 38:06.22 | 4:20.53 | 171472 | 191024 11 | 42:27.00 | 6:06.15 | 191025 | 218489 12 | 48:33.15 | 3:52.15 | 218490 | 235904
Характеристики диапазона извлечения и сообщения об ошибках
Выбранный диапазон
Имя файла E:\Музыка\Silvestrov\Valentin Silvestrov - Silent Songs CD1.wav
Пиковый уровень 87.7 % Скорость извлечения 2.1 X Качество диапазона 99.9 % CRC теста 5CCD8DB1 CRC копии 5CCD8DB1 Копирование... OK
Ошибок не произошло
AccurateRip: сводка
Трек 1 : извлечено точно (доверие 5) [782DC0ED] (AR v2)Трек 2 : извлечено точно (доверие 5) [BF6BA2ED] (AR v2)Трек 3 : извлечено точно (доверие 5) [837A3D5B] (AR v2)Трек 4 : извлечено точно (доверие 5) [3D6EF8B5] (AR v2)Трек 5 : извлечено точно (доверие 5) [0B96BBFC] (AR v2)Трек 6 : извлечено точно (доверие 5) [B30D38BB] (AR v2)Трек 7 : извлечено точно (доверие 5) [EF4B998E] (AR v2)Трек 8 : извлечено точно (доверие 5) [A77002A7] (AR v2)Трек 9 : извлечено точно (доверие 5) [E022F588] (AR v2)Трек 10 : извлечено точно (доверие 5) [7B4475E5] (AR v2)Трек 11 : извлечено точно (доверие 5) [9C63CDF4] (AR v2)Трек 12 : извлечено точно (доверие 5) [F29EC3EB] (AR v2)
Все треки извлечены точно
Конец отчёта
==== Контрольная сумма отчёта 86F3E7712434967D963A94881B5972FD8CDE4271C904124E0C58960E4340AB83 ====

CD2

Exact Audio Copy V1.0 beta 3 from 29. August 2011
Отчёт EAC об извлечении, выполненном 19. октября 2013, 1:40
Sergey Yakovenko, Ilya Scheps / Valentin Silvestrov - Silent Songs CD2
Дисковод: HL-DT-STDVDRAM GT33N Adapter: 1 ID: 0
Режим чтения : ДостоверностьИспользование точного потока : ДаОтключение кэша аудио : ДаИспользование указателей C2 : Нет
Коррекция смещения при чтении : 103Способность читать области Lead-in и Lead-out : НетЗаполнение пропущенных сэмплов тишиной : ДаУдаление блоков с тишиной в начале и конце : НетПри вычислениях CRC использовались нулевые сэмплы : ДаИнтерфейс : Встроенный Win32-интерфейс для Win NT/2000
Выходной формат : Пользовательский кодировщикВыбранный битрейт : 1024 kBit/sКачество : ВысокийДобавление ID3-тега : ДаУтилита сжатия : C:\Program Files (x86)\Exact Audio Copy\Flac\flac.exeДополнительные параметры : -8 -V -T "ALBUMARTIST=%albumartist%" -T "ALBUM=%albumtitle%" -T "DATE=%year%" -T "TRACKTOTAL=%numtracks%" -T "GENRE=%genre%" -T "COMMENT=%comment%" -T "PERFORMER=%albuminterpret%" -T "COMPOSER=%composer%" %source% -o %dest%
TOC извлечённого CD
Трек | Старт | Длительность | Начальный сектор | Конечный сектор --------------------------------------------------------------------- 1 | 0:00.00 | 5:51.32 | 0 | 26356 2 | 5:51.32 | 4:25.23 | 26357 | 46254 3 | 10:16.55 | 4:52.35 | 46255 | 68189 4 | 15:09.15 | 6:00.17 | 68190 | 95206 5 | 21:09.32 | 4:31.10 | 95207 | 115541 6 | 25:40.42 | 5:31.48 | 115542 | 140414 7 | 31:12.15 | 4:51.12 | 140415 | 162251 8 | 36:03.27 | 3:38.35 | 162252 | 178636 9 | 39:41.62 | 2:10.00 | 178637 | 188386 10 | 41:51.62 | 4:30.08 | 188387 | 208644 11 | 46:21.70 | 3:52.32 | 208645 | 226076 12 | 50:14.27 | 3:18.05 | 226077 | 240931 13 | 53:32.32 | 4:28.48 | 240932 | 261079 14 | 58:01.05 | 1:38.37 | 261080 | 268466 15 | 59:39.42 | 3:25.45 | 268467 | 283886 16 | 63:05.12 | 3:45.28 | 283887 | 300789
Характеристики диапазона извлечения и сообщения об ошибках
Выбранный диапазон
Имя файла E:\Музыка\Silvestrov\Valentin Silvestrov - Silent Songs CD2.wav
Пиковый уровень 83.4 % Скорость извлечения 2.2 X Качество диапазона 100.0 % CRC теста 636407E9 CRC копии 636407E9 Копирование... OK
Ошибок не произошло
AccurateRip: сводка
Трек 1 : извлечено точно (доверие 5) [BB6E4236] (AR v2)Трек 2 : извлечено точно (доверие 5) [FB538DAE] (AR v2)Трек 3 : извлечено точно (доверие 5) [83445B9A] (AR v2)Трек 4 : извлечено точно (доверие 5) [AC40EFA0] (AR v2)Трек 5 : извлечено точно (доверие 5) [42285DBD] (AR v2)Трек 6 : извлечено точно (доверие 5) [85B71BBC] (AR v2)Трек 7 : извлечено точно (доверие 5) [07E02538] (AR v2)Трек 8 : извлечено точно (доверие 5) [1B7B66EB] (AR v2)Трек 9 : извлечено точно (доверие 5) [59BD849D] (AR v2)Трек 10 : извлечено точно (доверие 5) [983E691A] (AR v2)Трек 11 : извлечено точно (доверие 5) [CC6E1697] (AR v2)Трек 12 : извлечено точно (доверие 5) [6C75E365] (AR v2)Трек 13 : извлечено точно (доверие 5) [B2521EE0] (AR v2)Трек 14 : извлечено точно (доверие 5) [BE29E789] (AR v2)Трек 15 : извлечено точно (доверие 5) [5107C83B] (AR v2)Трек 16 : извлечено точно (доверие 5) [FED73531] (AR v2)
Все треки извлечены точно
Конец отчёта
==== Контрольная сумма отчёта 07341E0C0626CB14B736574DE1405499164B255D91930695F18FBE1365F13414 ====

Содержание индексной карты (.CUE)CD1

REM GENRE ClassicalREM DATE 2004REM DISCID A40C490CREM COMMENT "ExactAudioCopy v1.0b3"PERFORMER "Sergey Yakovenko, Ilya Scheps"TITLE "Valentin Silvestrov - Silent Songs CD1"FILE "Valentin Silvestrov - Silent Songs CD1.flac" WAVE TRACK 01 AUDIO TITLE "Silent Songs, Part I: Song can tend the ailing spirit (Baratynsky)" PERFORMER "Sergey Yakovenko, Ilya Scheps" INDEX 01 00:00:00 TRACK 02 AUDIO TITLE "Silent Songs, Part I: There were some storms and blizzards (Baratynsky)" PERFORMER "Sergey Yakovenko, Ilya Scheps" INDEX 01 03:25:47 TRACK 03 AUDIO TITLE "Silent Songs, Part I: La Belle Dame Sans Merci (Keats)" PERFORMER "Sergey Yakovenko, Ilya Scheps" INDEX 01 07:01:60 TRACK 04 AUDIO TITLE "Silent Songs, Part I: O melancholy time (Pushkin)" PERFORMER "Sergey Yakovenko, Ilya Scheps" INDEX 01 14:01:05 TRACK 05 AUDIO TITLE "Silent Songs, Part I: Farewell, o world, o earth (Shevchenko)" PERFORMER "Sergey Yakovenko, Ilya Scheps" INDEX 01 17:10:17 TRACK 06 AUDIO TITLE "Silent Songs, Part II: What meaning has my name for you? (Pushkin)" PERFORMER "Sergey Yakovenko, Ilya Scheps" INDEX 01 22:13:57 TRACK 07 AUDIO TITLE "Silent Songs, Part II: I will tell you with unswerving frankness (Mandelstam)" PERFORMER "Sergey Yakovenko, Ilya Scheps" INDEX 01 24:45:05 TRACK 08 AUDIO TITLE "Silent Songs, Part II: I'm drinking to Mary (Pushkin)" PERFORMER "Sergey Yakovenko, Ilya Scheps" INDEX 01 28:21:27 TRACK 09 AUDIO TITLE "Silent Songs, Part II: Winter Journey (Pushkin)" PERFORMER "Sergey Yakovenko, Ilya Scheps" INDEX 01 32:45:12 TRACK 10 AUDIO TITLE "Silent Songs, Part II: White, a solitary sail (Lermontov)" PERFORMER "Sergey Yakovenko, Ilya Scheps" INDEX 01 38:06:22 TRACK 11 AUDIO TITLE "Silent Songs, Part II: I met you (Tyutchev)" PERFORMER "Sergey Yakovenko, Ilya Scheps" INDEX 01 42:27:00 TRACK 12 AUDIO TITLE "Silent Songs, Part II: The Isle (Shelley)" PERFORMER "Sergey Yakovenko, Ilya Scheps" INDEX 01 48:33:15

CD2

REM GENRE ClassicalREM DATE 2004REM DISCID DF0FAA10REM COMMENT "ExactAudioCopy v1.0b3"PERFORMER "Sergey Yakovenko, Ilya Scheps"TITLE "Valentin Silvestrov - Silent Songs CD2"FILE "Valentin Silvestrov - Silent Songs CD2.flac" WAVE TRACK 01 AUDIO TITLE "Silent Songs, Part II: Something tender, blue, unspoken (Yesenin)" PERFORMER "Sergey Yakovenko, Ilya Scheps" INDEX 01 00:00:00 TRACK 02 AUDIO TITLE "Silent Songs, Part II: Autumn Song (Yesenin)" PERFORMER "Sergey Yakovenko, Ilya Scheps" INDEX 01 05:51:32 TRACK 03 AUDIO TITLE "Silent Songs, Part II: Swamps and marshes (Yesenin)" PERFORMER "Sergey Yakovenko, Ilya Scheps" INDEX 01 10:16:55 TRACK 04 AUDIO TITLE "Silent Songs, Part II: Winter Evening (Pushkin)" PERFORMER "Sergey Yakovenko, Ilya Scheps" INDEX 01 15:09:15 TRACK 05 AUDIO TITLE "Silent Songs, Part III: When the cornfield, yellowing, stirs (Lermontov)" PERFORMER "Sergey Yakovenko, Ilya Scheps" INDEX 01 21:09:32 TRACK 06 AUDIO TITLE "Silent Songs, Part III: I set out on the road alone (Lermontov)" PERFORMER "Sergey Yakovenko, Ilya Scheps" INDEX 01 25:40:42 TRACK 07 AUDIO TITLE "Silent Songs, Part III: Mountain summits (Lermontov)" PERFORMER "Sergey Yakovenko, Ilya Scheps" INDEX 01 31:12:15 TRACK 08 AUDIO TITLE "Silent Songs, Part IV: Elegy. Verses Composed at Night, at a Time of Insomnia (Pushkin)" PERFORMER "Sergey Yakovenko, Ilya Scheps" INDEX 01 36:03:27 TRACK 09 AUDIO TITLE "Silent Songs, Part IV: Choral. A vengeful God (Tyutchev)" PERFORMER "Sergey Yakovenko, Ilya Scheps" INDEX 01 39:41:62 TRACK 10 AUDIO TITLE "Silent Songs, Part IV: Meditation. It's time, my friend, it's time! (Pushkin)" PERFORMER "Sergey Yakovenko, Ilya Scheps" INDEX 01 41:51:62 TRACK 11 AUDIO TITLE "Silent Songs, Part IV: Ode. Schubert on water (Mandelstam)" PERFORMER "Sergey Yakovenko, Ilya Scheps" INDEX 01 46:21:70 TRACK 12 AUDIO TITLE "Silent Songs, Part IV: Postludium. Those sweet companions (Zhukovsky)" PERFORMER "Sergey Yakovenko, Ilya Scheps" INDEX 01 50:14:27 TRACK 13 AUDIO TITLE "Four Songs after Osip Mandelstam: My lashes are pricking" PERFORMER "Sergey Yakovenko, Valentin Silvestrov" INDEX 01 53:32:32 TRACK 14 AUDIO TITLE "Four Songs after Osip Mandelstam: I don't know when" PERFORMER "Sergey Yakovenko, Valentin Silvestrov" INDEX 01 58:01:05 TRACK 15 AUDIO TITLE "Four Songs after Osip Mandelstam: For the thunderous grandeur of ages to come" PERFORMER "Sergey Yakovenko, Valentin Silvestrov" INDEX 01 59:39:42 TRACK 16 AUDIO TITLE "Four Songs after Osip Mandelstam: The oaks drink from a cold vessel" PERFORMER "Sergey Yakovenko, Valentin Silvestrov" INDEX 01 63:05:12



Показать сообщения:    

Текущее время: 08-Дек 03:07

Часовой пояс: UTC + 3


Вы не можете начинать темы
Вы не можете отвечать на сообщения
Вы не можете редактировать свои сообщения
Вы не можете удалять свои сообщения
Вы не можете голосовать в опросах
Вы не можете прикреплять файлы к сообщениям
Вы не можете скачивать файлы