(Vocal) The Unpublished Treasury (Pearl) - Caruso, Chaliapin, Galli-Curci, Gigli, Pinza, Ponselle, Schipa, Bori, Koshetz, Gorin, Tibett, Zanelli / Шаляпин, Горин, Кошиц (Verdi, Puccini, Gounod, Massenet, Bizet) - 2004, FLAC (image+.cue) lossless


 

[Цитировать]

The Unpublished Treasury - Caruso, Chaliapin, Galli-Curci, Gigli, Pinza, Ponselle, Schipa...
Жанр: Vocal
Страна-производитель диска: England
Год издания диска: 2004
Издатель (лейбл): Pearl
Номер по каталогу: GEM 0215
Аудиокодек: FLAC
Тип рипа: image+.cue
Битрейт аудио: lossless
Продолжительность: 1:16
Источник: собственный рип
Наличие сканов в содержимом раздачи: да
Треклист:
1. Enrico Caruso - Celeste Aida (Verdi, "Aida")
2. Enrico Caruso - Miserere (Verdi, "Il Trovatore")
3. Enrico Caruso - O soave fanciulla (Puccini, "La Boheme")
4. Lucrezia Bori - E strano! - e strano!... Ah, fors' e lui... Sempre libera (Verdi, "Traviata")
5. Amelita Galli-Curci - Waltz song (Gounod, "Romeo et Juliette")
6. Amelita Galli-Curci - Non quiero casarme (Traditional)
7. Amelita Galli-Curci - Jurame (Grever)
8. Feodor Chaliapin - Ca vous commetez tous un acte epouvantable (Massenet, "Don Quichotte")
9. Igor Gorin - My yearning (Korngold)
10. Nina Koshetz - Fais Dodo, Mignonne (Chopin)
11. Nina Koshetz - Etude in E Major Op. 10 No. 3 (Chopin)
12. Tito Schipa - Chi se nne scorda occhiu! (Barthelemy)
13. Beniamino Gigli - No, no Turiddu (Mascagni)
14. Beniamino Gigli - Mi par d'udir ancor (Bizet)
15. Rosa Ponselle - Surta e la notte (Verdi)
16. Ezio Pinza - Abbietta Zingara (Verdi)
17. Ezio Pinza - Confutatis maledictis (Verdi)
18. Lawrence Tibbett - Shake your brown feet, honey (Carpenter)
19. Lawrence Tibbett - Le Crucifix (Jean-Baptiste Faure)
20. Renato Zanelli - Cujus animam (Rossini)
Исполнители:
Enrico Caruso (1-3), Lucrezia Bori (4), Amelita Galli-Curci (5-7), Feodor Chaliapin (8), Igor Gorin (9), Nina Koshetz (10,11), Tito Schipa (12), Beniamino Gigli (13,14), Rosa Ponselle (15), Ezio Pinza (16, 17), Lawrence Tibbett (18, 19), Renato Zanelli (20)

Лог создания рипа

Exact Audio Copy V1.0 beta 3 from 29. August 2011
EAC extraction logfile from 17. August 2013, 11:50
Various Artists / The Unpublished Treasury
Used drive : Optiarc DVD RW AD-7703S Adapter: 1 ID: 0
Read mode : SecureUtilize accurate stream : YesDefeat audio cache : YesMake use of C2 pointers : No
Read offset correction : 48Overread into Lead-In and Lead-Out : NoFill up missing offset samples with silence : YesDelete leading and trailing silent blocks : NoNull samples used in CRC calculations : YesUsed interface : Native Win32 interface for Win NT & 2000
Used output format : User Defined EncoderSelected bitrate : 896 kBit/sQuality : HighAdd ID3 tag : NoCommand line compressor : C:\Portable\EACPortable\App\EAC\FLAC\flac.exeAdditional command line options : -6 -V -T "ARTIST=%artist%" -T "TITLE=%title%" -T "ALBUM=%albumtitle%" -T "DATE=%year%" -T "TRACKNUMBER=%tracknr%" -T "GENRE=%genre%" -T "COMMENT=%comment%" %hascover%--picture="%coverfile%"%hascover% %source% -o %dest%
TOC of the extracted CD
Track | Start | Length | Start sector | End sector --------------------------------------------------------- 1 | 0:00.00 | 4:04.46 | 0 | 18345 2 | 4:04.46 | 3:52.03 | 18346 | 35748 3 | 7:56.49 | 3:43.27 | 35749 | 52500 4 | 11:40.01 | 6:52.42 | 52501 | 83442 5 | 18:32.43 | 3:24.43 | 83443 | 98785 6 | 21:57.11 | 0:59.55 | 98786 | 103265 7 | 22:56.66 | 2:05.32 | 103266 | 112672 8 | 25:02.23 | 3:56.69 | 112673 | 130441 9 | 28:59.17 | 4:44.61 | 130442 | 151802 10 | 33:44.03 | 3:43.36 | 151803 | 168563 11 | 37:27.39 | 3:44.48 | 168564 | 185411 12 | 41:12.12 | 1:51.58 | 185412 | 193794 13 | 43:03.70 | 4:35.29 | 193795 | 214448 14 | 47:39.24 | 3:59.65 | 214449 | 232438 15 | 51:39.14 | 4:32.70 | 232439 | 252908 16 | 56:12.09 | 4:34.04 | 252909 | 273462 17 | 60:46.13 | 3:48.03 | 273463 | 290565 18 | 64:34.16 | 2:58.34 | 290566 | 303949 19 | 67:32.50 | 3:35.40 | 303950 | 320114 20 | 71:08.15 | 4:38.61 | 320115 | 341025
Range status and errors
Selected range
Filename C:\The Unpublished Treasury (2004) - 2\Various Artists - The Unpublished Treasury.wav
Peak level 100.0 % Extraction speed 5.3 X Range quality 100.0 % Copy CRC 8A5188E9 Copy OK
No errors occurred
AccurateRip summary
Track 1 not present in databaseTrack 2 not present in databaseTrack 3 not present in databaseTrack 4 not present in databaseTrack 5 not present in databaseTrack 6 not present in databaseTrack 7 not present in databaseTrack 8 not present in databaseTrack 9 not present in databaseTrack 10 not present in databaseTrack 11 not present in databaseTrack 12 not present in databaseTrack 13 not present in databaseTrack 14 not present in databaseTrack 15 not present in databaseTrack 16 not present in databaseTrack 17 not present in databaseTrack 18 not present in databaseTrack 19 not present in databaseTrack 20 not present in database
None of the tracks are present in the AccurateRip database
End of status report
Доп. информация: Первое издание (на CD) неизвестных записей знаменитых исполнителей.



Показать сообщения:    

Текущее время: 11-Дек 03:15

Часовой пояс: UTC + 3


Вы не можете начинать темы
Вы не можете отвечать на сообщения
Вы не можете редактировать свои сообщения
Вы не можете удалять свои сообщения
Вы не можете голосовать в опросах
Вы не можете прикреплять файлы к сообщениям
Вы не можете скачивать файлы