(Vocal) Pavel Lisitsian - The Great Armenian Baritone (Pearl) / Павел Лисициан (Глинка, Рахманинов, Римский-Корсаков, Рубинштейн, Чайковский, Чухаджян, Leoncavallo, Verdi, Ravel) - 1993, FLAC (image+.cue) lossless


 

[Цитировать]

Pavel Lisitsian - The Great Armenian Baritone / Павел Лисициан
Жанр: Vocal
Страна-производитель диска: England
Год издания диска: 1993
Издатель (лейбл): Pearl
Номер по каталогу: GEMM CD 9036
Аудиокодек: FLAC
Тип рипа: image+.cue
Битрейт аудио: lossless
Продолжительность: 1:15
Источник: собственный рип
Наличие сканов в содержимом раздачи: да
Треклист:
1. В крови горит огонь желанья (Глинка)
2. Пью за здравие Мэри (Глинка)
3. Апрель (Рахманинов)
4. Огонь любви (Рахманинов)
5. Как мне больно (Рахманинов)
6. Ария веденецкого гостя (Римский-Корсаков, "Садко")
7. Ария Елецкого (Чайковский, "Пиковая дама")
8. Ария Онегина "Вы мне писали..." (Чайковский, "Евгений Онегин")
9. Ариозо Онегина "Ужель та самая Татьяна" (Чайковский, "Евгений Онегин")
10. Я хочу, чтоб страна родная (Чухаджян, "Аршак II")
11. Эпиталама Виндекса (Рубинштейн, "Нерон")
12. Пролог (Леонкавалло, "Паяцы")
13. Дуэт Недды и Сильвио (Леонкавалло, "Паяцы")
14. Di Provenza il Mar... (Верди, "Травиата")
15. Eri tu (Верди, "Бал маскарад")
16. Zaza, piccola zingara (Леонкавалло, "Заза")
17. В молчаньи ночи тайной (Рахманинов)
18. Нет, только тот кто знал (Чайковский)
19. Don Quichotte. Chanson romantique (Равель)
20. Don Quichotte. Chanson a boire (Равель)
Исполнители:
Павел Лисициан, баритон

Лог создания рипа

Exact Audio Copy V1.0 beta 3 from 29. August 2011
EAC extraction logfile from 2. July 2013, 7:34
Pavel Lisitsian / Pavel Lisitsian
Used drive : Optiarc DVD RW AD-7703S Adapter: 1 ID: 0
Read mode : SecureUtilize accurate stream : YesDefeat audio cache : YesMake use of C2 pointers : No
Read offset correction : 48Overread into Lead-In and Lead-Out : NoFill up missing offset samples with silence : YesDelete leading and trailing silent blocks : NoNull samples used in CRC calculations : YesUsed interface : Native Win32 interface for Win NT & 2000
Used output format : User Defined EncoderSelected bitrate : 896 kBit/sQuality : HighAdd ID3 tag : NoCommand line compressor : C:\Portable\EACPortable\App\EAC\FLAC\flac.exeAdditional command line options : -6 -V -T "ARTIST=%artist%" -T "TITLE=%title%" -T "ALBUM=%albumtitle%" -T "DATE=%year%" -T "TRACKNUMBER=%tracknr%" -T "GENRE=%genre%" -T "COMMENT=%comment%" %hascover%--picture="%coverfile%"%hascover% %source% -o %dest%
TOC of the extracted CD
Track | Start | Length | Start sector | End sector --------------------------------------------------------- 1 | 0:00.32 | 1:13.50 | 32 | 5556 2 | 1:14.07 | 1:29.73 | 5557 | 12304 3 | 2:44.05 | 2:54.27 | 12305 | 25381 4 | 5:38.32 | 3:08.23 | 25382 | 39504 5 | 8:46.55 | 1:51.15 | 39505 | 47844 6 | 10:37.70 | 4:34.67 | 47845 | 68461 7 | 15:12.62 | 4:54.70 | 68462 | 90581 8 | 20:07.57 | 4:59.33 | 90582 | 113039 9 | 25:07.15 | 1:51.47 | 113040 | 121411 10 | 26:58.62 | 2:33.50 | 121412 | 132936 11 | 29:32.37 | 3:21.28 | 132937 | 148039 12 | 32:53.65 | 8:00.20 | 148040 | 184059 13 | 40:54.10 | 9:41.52 | 184060 | 227686 14 | 50:35.62 | 4:41.13 | 227687 | 248774 15 | 55:17.00 | 6:42.72 | 248775 | 278996 16 | 61:59.72 | 2:18.73 | 278997 | 289419 17 | 64:18.70 | 2:49.62 | 289420 | 302156 18 | 67:08.57 | 3:08.58 | 302157 | 316314 19 | 70:17.40 | 3:10.67 | 316315 | 330631 20 | 73:28.32 | 1:46.73 | 330632 | 338654
Range status and errors
Selected range
Filename C:\Pavel Lisitsian (1993)\Pavel Lisitsian.wav
Peak level 100.0 % Extraction speed 5.4 X Range quality 100.0 % Copy CRC 8F29468C Copy OK
No errors occurred
End of status report



Показать сообщения:    

Текущее время: 10-Дек 21:35

Часовой пояс: UTC + 3


Вы не можете начинать темы
Вы не можете отвечать на сообщения
Вы не можете редактировать свои сообщения
Вы не можете удалять свои сообщения
Вы не можете голосовать в опросах
Вы не можете прикреплять файлы к сообщениям
Вы не можете скачивать файлы