(Classical) The Great Chaliapin (Pearl) / Великий Шаляпин (Rossini, Bellini, Gounod, Boito, Massenet, Schubert, Schumann, Мусоргский, Глинка, Даргомыжский, Гречанинов, Рахманинов, Римский-Корсаков) 2CD - 1996, FLAC (image+.cue) lossless


 

[Цитировать]

The Great Chaliapin / Великий Шаляпин
,
Жанр: Classical
Страна-производитель диска: England
Год издания диска: 1996
Издатель (лейбл): Pearl
Номер по каталогу: GEMM CDS 9208
Аудиокодек: FLAC
Тип рипа: image+.cue
Битрейт аудио: lossless
Продолжительность: 1:16+1:15
Источник: собственный рип
Наличие сканов в содержимом раздачи: да
Треклист:
CD 1:
1. Dunque la calunnia cos'e (Rossini)
2. Vi ravviso (Bellini)
3. Un rat... Le veau d'or (Gounod)
4. Vous qui faites l'endormie (Gounod)
5. Death of Don Quichotte (Massenet)
6. Ave signor and prologue (Boito)
7. In questa tomba oscura (Beethoven)
8. Der Tod und das Maedchen (Schubert)
9. Der Doppelgaenger (Schubert)
10. The Two Grenadiers (Schumann)
11. Elegie (Massenet)
12. The Blind Ploughman (Clarke)
13. Glory to the Lord (Gretchaninov)
14. The Creed (Gretchaninov)
15. Miller's aria (Dargomizhsky)
16. Mad Scene and Death of the Miller (Dargomizhsky)
CD 2:
1. Farlaf's Rondo (Glinka)
2. The Varangian Merchant's Song (Rimsky-Korsakov)
3. Khank Konchak's aria (Borodin)
4. Mozart and Salieri, Act II, Finale (Rimsky-Korsakov)
5. Aleko's cavatina (Rachmaninov)
6. Monologue and clock scene (Mussorgsky)
7. Prayer and Death of Boris (Mussorgsky)
8. Persian Song Op. 34 No. 9 (Rubinstein)
9. The Prisoner Op. 78 No.6 (Rubinstein)
10. Song of the Flea (Mussorgsky)
11. Doubt (Glinka)
12. Sten'ka Razin (Trad.)
13. Legend of the Twelve Brigands (Trad.)
14. Song of the Volga Boatmen (Trad.)
15. Down the Volga (Trad.)
16. Black Eyes (Trad.)
17. Down the Petersky (Trad.)
Исполнители:
Федор Шаляпин, бас
Дополнительная информация:
ЛУЧШИЙ, на мой взгляд, трансфер записей Шаляпина с оригинальных пластинок.
Некоторые записи (например, "Каватина Алеко") звучат, будто записаны в наше время.

Лог создания рипа

Exact Audio Copy V1.0 beta 3 from 29. August 2011
EAC extraction logfile from 1. June 2013, 23:15
Feodor Chaliapin / The Great Chaliapin (CD1)
Used drive : Optiarc DVD RW AD-7703S Adapter: 1 ID: 0
Read mode : SecureUtilize accurate stream : YesDefeat audio cache : YesMake use of C2 pointers : No
Read offset correction : 48Overread into Lead-In and Lead-Out : NoFill up missing offset samples with silence : YesDelete leading and trailing silent blocks : NoNull samples used in CRC calculations : YesUsed interface : Native Win32 interface for Win NT & 2000
Used output format : User Defined EncoderSelected bitrate : 896 kBit/sQuality : HighAdd ID3 tag : NoCommand line compressor : C:\Portable\EACPortable\App\EAC\FLAC\flac.exeAdditional command line options : -6 -V -T "ARTIST=%artist%" -T "TITLE=%title%" -T "ALBUM=%albumtitle%" -T "DATE=%year%" -T "TRACKNUMBER=%tracknr%" -T "GENRE=%genre%" -T "COMMENT=%comment%" %hascover%--picture="%coverfile%"%hascover% %source% -o %dest%
TOC of the extracted CD
Track | Start | Length | Start sector | End sector --------------------------------------------------------- 1 | 0:00.32 | 4:40.13 | 32 | 21044 2 | 4:40.45 | 3:11.72 | 21045 | 35441 3 | 7:52.42 | 3:38.33 | 35442 | 51824 4 | 11:31.00 | 3:22.30 | 51825 | 67004 5 | 14:53.30 | 9:06.52 | 67005 | 108006 6 | 24:00.07 | 9:57.18 | 108007 | 152799 7 | 33:57.25 | 3:42.20 | 152800 | 169469 8 | 37:39.45 | 2:08.00 | 169470 | 179069 9 | 39:47.45 | 4:06.57 | 179070 | 197576 10 | 43:54.27 | 3:11.03 | 197577 | 211904 11 | 47:05.30 | 4:17.17 | 211905 | 231196 12 | 51:22.47 | 3:07.58 | 231197 | 245279 13 | 54:30.30 | 4:21.72 | 245280 | 264926 14 | 58:52.27 | 4:14.28 | 264927 | 284004 15 | 63:06.55 | 3:54.17 | 284005 | 301571 16 | 67:00.72 | 9:08.38 | 301572 | 342709
Range status and errors
Selected range
Filename C:\The Great Chaliapin (1996)\CD1\Feodor Chaliapin - The Great Chaliapin (CD1).wav
Peak level 97.7 % Extraction speed 5.6 X Range quality 100.0 % Copy CRC ED82A831 Copy OK
No errors occurred
End of status report
Exact Audio Copy V1.0 beta 3 from 29. August 2011
EAC extraction logfile from 1. June 2013, 23:41
Feodor Chaliapin / The Great Chaliapin (CD2)
Used drive : Optiarc DVD RW AD-7703S Adapter: 1 ID: 0
Read mode : SecureUtilize accurate stream : YesDefeat audio cache : YesMake use of C2 pointers : No
Read offset correction : 48Overread into Lead-In and Lead-Out : NoFill up missing offset samples with silence : YesDelete leading and trailing silent blocks : NoNull samples used in CRC calculations : YesUsed interface : Native Win32 interface for Win NT & 2000
Used output format : User Defined EncoderSelected bitrate : 896 kBit/sQuality : HighAdd ID3 tag : NoCommand line compressor : C:\Portable\EACPortable\App\EAC\FLAC\flac.exeAdditional command line options : -6 -V -T "ARTIST=%artist%" -T "TITLE=%title%" -T "ALBUM=%albumtitle%" -T "DATE=%year%" -T "TRACKNUMBER=%tracknr%" -T "GENRE=%genre%" -T "COMMENT=%comment%" %hascover%--picture="%coverfile%"%hascover% %source% -o %dest%
TOC of the extracted CD
Track | Start | Length | Start sector | End sector --------------------------------------------------------- 1 | 0:00.32 | 3:04.58 | 32 | 13889 2 | 3:05.15 | 3:42.32 | 13890 | 30571 3 | 6:47.47 | 4:51.50 | 30572 | 52446 4 | 11:39.22 | 3:09.35 | 52447 | 66656 5 | 14:48.57 | 4:50.00 | 66657 | 88406 6 | 19:38.57 | 9:08.08 | 88407 | 129514 7 | 28:46.65 | 8:59.62 | 129515 | 170001 8 | 37:46.52 | 4:47.55 | 170002 | 191581 9 | 42:34.32 | 2:56.28 | 191582 | 204809 10 | 45:30.60 | 3:02.32 | 204810 | 218491 11 | 48:33.17 | 5:11.43 | 218492 | 241859 12 | 53:44.60 | 4:11.52 | 241860 | 260736 13 | 57:56.37 | 4:02.58 | 260737 | 278944 14 | 61:59.20 | 3:35.72 | 278945 | 295141 15 | 65:35.17 | 3:29.10 | 295142 | 310826 16 | 69:04.27 | 3:34.03 | 310827 | 326879 17 | 72:38.30 | 2:03.47 | 326880 | 336151
Range status and errors
Selected range
Filename C:\The Great Chaliapin (1996)\CD2\Feodor Chaliapin - The Great Chaliapin (CD2).wav
Peak level 97.7 % Extraction speed 5.5 X Range quality 99.9 % Copy CRC 82E16AEB Copy OK
No errors occurred
End of status report



Показать сообщения:    

Текущее время: 04-Дек 09:05

Часовой пояс: UTC + 3


Вы не можете начинать темы
Вы не можете отвечать на сообщения
Вы не можете редактировать свои сообщения
Вы не можете удалять свои сообщения
Вы не можете голосовать в опросах
Вы не можете прикреплять файлы к сообщениям
Вы не можете скачивать файлы