(Classical) Anna Mailian/Mayilyan - Sacred Songs. Naregatsi Xc - 2006, FLAC (image+.cue) lossless


 

[Цитировать]

Anna Mailian/Mayilyan - Sacred Songs. Naregatsi Xc
Жанр: Classical
Год издания диска: 2006
Издатель (лейбл): Naregatsi Art Institute
Номер по каталогу: 6N1033
Аудиокодек: FLAC
Тип рипа: image+.cue
Битрейт аудио: lossless
Продолжительность: 50:17
Источник: собственный рип
Наличие сканов в содержимом раздачи: да
Треклист:
1. Sail ain ijaner... (The cart is descending) (6:32)
2. Havoun, havoun (About the bird) (6:02)
3. Ynkal qaghcruteamb (Accept With Sweetness) (6:40)
4. Gohar vardn var arnel (The Precious Rose) (4:01)
5. Es dzain zarutsun asem; Aheghdzains (I Tell About the Voice of the Lion; The ... (8:22)
6. Sharakan Harutian (Resurrection Hymn) (2:33)
7. Acqn tsov i tsov tsitsaghakhit (The Eyes Like a Sea) (7:06)
8. Havik mi pajtsar tesi (A Radiant Bird) (3:48)
9. Sail ain ijaner... (The cart is descending) (5:13)
Исполнители:
Anna Mailian - mezzo-soprano

LOG EAC:

Exact Audio Copy V0.99 prebeta 4 from 23. January 2008
EAC extraction logfile from 17. May 2010, 21:28
Anna Mailian / Sacred Songs. Naregatsi Xc
Used drive : ATAPI DVD A DH20A4P Adapter: 2 ID: 1
Read mode : Secure
Utilize accurate stream : Yes
Defeat audio cache : Yes
Make use of C2 pointers : No
Read offset correction : 6
Overread into Lead-In and Lead-Out : No
Fill up missing offset samples with silence : Yes
Delete leading and trailing silent blocks : No
Null samples used in CRC calculations : Yes
Used interface : Installed external ASPI interface
Used output format : User Defined Encoder
Selected bitrate : 768 kBit/s
Quality : High
Add ID3 tag : No
Command line compressor : C:\Program Files\Exact Audio Copy\Flac\flac.exe
Additional command line options : -6 -V -T "ARTIST=%a" -T "TITLE=%t" -T "ALBUM=%g" -T "DATE=%y" -T "TRACKNUMBER=%n" -T "GENRE=%m" -T "COMMENT=%e" %s -o %d
TOC of the extracted CD
Track | Start | Length | Start sector | End sector
---------------------------------------------------------
1 | 0:00.00 | 6:32.10 | 0 | 29409
2 | 6:32.10 | 6:02.45 | 29410 | 56604
3 | 12:34.55 | 6:40.65 | 56605 | 86669
4 | 19:15.45 | 4:01.09 | 86670 | 104753
5 | 23:16.54 | 8:22.13 | 104754 | 142416
6 | 31:38.67 | 2:33.01 | 142417 | 153892
7 | 34:11.68 | 7:06.44 | 153893 | 185886
8 | 41:18.37 | 3:48.30 | 185887 | 203016
9 | 45:06.67 | 5:13.58 | 203017 | 226549
Range status and errors
Selected range
Filename C:\Program Files\Exact Audio Copy\Flac\Anna Mailian - Sacred Songs. Naregatsi Xc.wav
Peak level 100.0 %
Range quality 100.0 %
Test CRC 7ACF9762
Copy CRC 7ACF9762
Copy OK
No errors occurred
AccurateRip summary
Track 1 not present in database
Track 2 not present in database
Track 3 not present in database
Track 4 not present in database
Track 5 not present in database
Track 6 not present in database
Track 7 not present in database
Track 8 not present in database
Track 9 not present in database
None of the tracks are present in the AccurateRip database
End of status report



Показать сообщения:    

Текущее время: 09-Дек 14:42

Часовой пояс: UTC + 3


Вы не можете начинать темы
Вы не можете отвечать на сообщения
Вы не можете редактировать свои сообщения
Вы не можете удалять свои сообщения
Вы не можете голосовать в опросах
Вы не можете прикреплять файлы к сообщениям
Вы не можете скачивать файлы