(Vocal) Шостакович - Из еврейской народной поэзии | Шапорин - 6 романсов | Ипполитов-Иванов - 4 поэмы на стихи Рабиндраната Тагора | Кабалевский - 6 веселых песен (З.Долуханова • Н.Дорлиак • Б.Козель и др.) - 1994, FLAC (image+.cue) lossless


 

[Цитировать]

Shostakovich • From Jewish Folk Poetry
Zara Dolukhanova
-
-
-
-
- Жанр: Vocal
Страна-производитель диска: USA
Год издания диска: 1994
Издатель (лейбл): Russian Disc
Дата записи: 1952/56/66
Аудиокодек: FLAC
Тип рипа: image+.cue
Битрейт аудио: lossless
Продолжительность: 57'33''
Источник: собственный рип
Наличие сканов в содержимом раздачи: да
Треклист:
Д.Шостакович - Из еврейской народной поэзии:
[1] I. Плач об умершем младенце
[2] II. Заботливые мама и тетя
[3] III. Колыбельная
[4] IV. Перед долгой разлукой
[5] V. Предостережение
[6] VI. Брошенный отец
[7] VII. Песня о нужде
[8] VIII. Зима
[9] IX. Хорошая жизнь
[10] X. Песня девушки
[11] XI. Счастье
Зара Долуханова - меццо-сопрано | Нина Дорлиак - сопрано | Александр Масленников - тенор
Дмитрий Шостакович - фортепиано

Юрий Шапорин - 6 романсов:
[12] Твой томный южный голос (Блок)
[13] Везде над лесом и над пашней (Блок)
[14] Я Помню День (Тютчев)
[15] Прохладой ночь дохнула (Щипачёв)
[16] Среди миров, в мерцании светил (Анненский)
[17] Русская Песня
Зара Долуханова - меццо-сопрано
Берта Козель - фортепиано

Михаил Ипполитов-Иванов - 4 поэмы на стихи Рабиндраната Тагора:
[18] I. Руки льнут к рукам
[19] II. Не уходи, не простившись
[20] III. O Мой Друг, вот Цветок
[21] IV. Жёлтенькая птица
Зара Долуханова - меццо-сопрано
Берта Козель - фортепиано

Дмитрий Кабалевский - 6 веселых песен
[22] I. Веселый Король
[23] II. Кабы реки и озёра
[24] III. Кораблик
[25] IV. История старушки
[26] V. Гвоздь и подкова
[27] VI. Ключ от королевства
Зара Долуханова - меццо-сопрано
Нина Светланова - фортепиано

Исполнители:
Зара Долуханова - меццо-сопрано-

Лог создания рипа

Exact Audio Copy V1.0 beta 3 from 29. August 2011
EAC extraction logfile from 1. May 2014, 15:01
Z.Dolukhanova / Shostakovich - From Jewish Folk Poetry
Used drive : COMPAQ CD-ROM LTN403 Adapter: 0 ID: 0
Read mode : SecureUtilize accurate stream : YesDefeat audio cache : YesMake use of C2 pointers : No
Read offset correction : -1164Overread into Lead-In and Lead-Out : NoFill up missing offset samples with silence : YesDelete leading and trailing silent blocks : NoNull samples used in CRC calculations : YesUsed interface : Native Win32 interface for Win NT & 2000
Used output format : User Defined EncoderSelected bitrate : 1024 kBit/sQuality : HighAdd ID3 tag : NoCommand line compressor : C:\Program Files\FLAC\flac.exeAdditional command line options : -T"COMMENT=rip by el coronel" -8 -V %source%
TOC of the extracted CD
Track | Start | Length | Start sector | End sector --------------------------------------------------------- 1 | 0:00.00 | 2:42.27 | 0 | 12176 2 | 2:42.27 | 1:48.00 | 12177 | 20276 3 | 4:30.27 | 3:13.73 | 20277 | 34824 4 | 7:44.25 | 2:40.32 | 34825 | 46856 5 | 10:24.57 | 1:04.15 | 46857 | 51671 6 | 11:28.72 | 2:02.50 | 51672 | 60871 7 | 13:31.47 | 1:19.00 | 60872 | 66796 8 | 14:50.47 | 3:01.20 | 66797 | 80391 9 | 17:51.67 | 1:25.03 | 80392 | 86769 10 | 19:16.70 | 2:27.00 | 86770 | 97794 11 | 21:43.70 | 1:26.05 | 97795 | 104249 12 | 23:10.00 | 3:04.12 | 104250 | 118061 13 | 26:14.12 | 2:06.15 | 118062 | 127526 14 | 28:20.27 | 1:31.70 | 127527 | 134421 15 | 29:52.22 | 3:00.00 | 134422 | 147921 16 | 32:52.22 | 2:13.05 | 147922 | 157901 17 | 35:05.27 | 3:15.63 | 157902 | 172589 18 | 38:21.15 | 2:56.10 | 172590 | 185799 19 | 41:17.25 | 2:32.10 | 185800 | 197209 20 | 43:49.35 | 2:01.35 | 197210 | 206319 21 | 45:50.70 | 1:44.55 | 206320 | 214174 22 | 47:35.50 | 1:37.65 | 214175 | 221514 23 | 49:13.40 | 1:43.32 | 221515 | 229271 24 | 50:56.72 | 1:27.45 | 229272 | 235841 25 | 52:24.42 | 1:44.33 | 235842 | 243674 26 | 54:09.00 | 1:21.32 | 243675 | 249781 27 | 55:30.32 | 2:02.48 | 249782 | 258979
Range status and errors
Selected range
Filename D:\Shostakovich - From Jewish Folk Poetry (Z.Dolukhanova).wav
Peak level 100.0 % Extraction speed 3.0 X Range quality 100.0 % Test CRC 07978938 Copy CRC 07978938 Copy OK
No errors occurred
End of status report
==== Log checksum CA00FB8327FFC2DEBB10B059236FB1A99949D12B7FA88490AF6FB6C604199625 ====

Содержание индексной карты (.CUE)

REM GENRE ClassicalREM DATE 1994REM DISCID 810D7D1BREM COMMENT "ExactAudioCopy v1.0b3"PERFORMER "Zara Dolukhanova"TITLE "Shostakovich - From Jewish Folk Poetry"FILE "Shostakovich - From Jewish Folk Poetry (Z.Dolukhanova).flac" WAVE TRACK 01 AUDIO TITLE "D.Shostakovich - From Jewish Folk Poetry: I. Lament for a dead child" PERFORMER "Z.Dolukhanova, N.Dorliak, A.Maslennikov, D.Shostakovich" INDEX 01 00:00:00 TRACK 02 AUDIO TITLE "II. The thoughtful mother and aunt" PERFORMER "Z.Dolukhanova, N.Dorliak, A.Maslennikov, D.Shostakovich" INDEX 00 02:40:17 INDEX 01 02:42:27 TRACK 03 AUDIO TITLE "III. Lullaby" PERFORMER "Z.Dolukhanova, N.Dorliak, A.Maslennikov, D.Shostakovich" INDEX 00 04:29:12 INDEX 01 04:30:27 TRACK 04 AUDIO TITLE "IV. Before a long partying" PERFORMER "Z.Dolukhanova, N.Dorliak, A.Maslennikov, D.Shostakovich" INDEX 00 07:41:57 INDEX 01 07:44:25 TRACK 05 AUDIO TITLE "V. A warning" PERFORMER "Z.Dolukhanova, N.Dorliak, A.Maslennikov, D.Shostakovich" INDEX 00 10:23:12 INDEX 01 10:24:57 TRACK 06 AUDIO TITLE "VI. The abandoned father" PERFORMER "Z.Dolukhanova, N.Dorliak, A.Maslennikov, D.Shostakovich" INDEX 00 11:27:00 INDEX 01 11:28:72 TRACK 07 AUDIO TITLE "VII. The song of misery" PERFORMER "Z.Dolukhanova, N.Dorliak, A.Maslennikov, D.Shostakovich" INDEX 00 13:30:20 INDEX 01 13:31:47 TRACK 08 AUDIO TITLE "VIII. Winter" PERFORMER "Z.Dolukhanova, N.Dorliak, A.Maslennikov, D.Shostakovich" INDEX 00 14:49:35 INDEX 01 14:50:47 TRACK 09 AUDIO TITLE "IX. A good life" PERFORMER "Z.Dolukhanova, N.Dorliak, A.Maslennikov, D.Shostakovich" INDEX 00 17:50:67 INDEX 01 17:51:67 TRACK 10 AUDIO TITLE "X. The young girl's song" PERFORMER "Z.Dolukhanova, N.Dorliak, A.Maslennikov, D.Shostakovich" INDEX 00 19:16:37 INDEX 01 19:16:70 TRACK 11 AUDIO TITLE "XI. Happiness" PERFORMER "Z.Dolukhanova, N.Dorliak, A.Maslennikov, D.Shostakovich" INDEX 00 21:43:12 INDEX 01 21:43:70 TRACK 12 AUDIO TITLE "Y.Shaporin - Romances: Your languid southern voice" PERFORMER "Z.Dolukhanova, B.Kozel" INDEX 00 23:04:62 INDEX 01 23:10:00 TRACK 13 AUDIO TITLE "Everywhere above forests and fields" PERFORMER "Z.Dolukhanova, B.Kozel" INDEX 00 26:10:62 INDEX 01 26:14:12 TRACK 14 AUDIO TITLE "Remember the day" PERFORMER "Z.Dolukhanova, B.Kozel" INDEX 00 28:17:25 INDEX 01 28:20:27 TRACK 15 AUDIO TITLE "The night breathed coolness" PERFORMER "Z.Dolukhanova, B.Kozel" INDEX 00 29:48:72 INDEX 01 29:52:22 TRACK 16 AUDIO TITLE "Amidst the world" PERFORMER "Z.Dolukhanova, B.Kozel" INDEX 00 32:48:47 INDEX 01 32:52:22 TRACK 17 AUDIO TITLE "Russian song" PERFORMER "Z.Dolukhanova, B.Kozel" INDEX 00 35:02:55 INDEX 01 35:05:27 TRACK 18 AUDIO TITLE "M.Ippolitov-Ivanov - 4 Poems of Rabindranath Tagore: I. Arms are drawn to arms" PERFORMER "Z.Dolukhanova, B.Kozel, E.Grach" INDEX 00 38:16:40 INDEX 01 38:21:15 TRACK 19 AUDIO TITLE "II. Don't leave without saying farewell" PERFORMER "Z.Dolukhanova, B.Kozel, E.Grach" INDEX 00 41:13:62 INDEX 01 41:17:25 TRACK 20 AUDIO TITLE "III. Oh my friend here is a flower" PERFORMER "Z.Dolukhanova, B.Kozel, E.Grach" INDEX 00 43:46:02 INDEX 01 43:49:35 TRACK 21 AUDIO TITLE "IV. Little yellow bird" PERFORMER "Z.Dolukhanova, B.Kozel, E.Grach" INDEX 00 45:47:50 INDEX 01 45:50:70 TRACK 22 AUDIO TITLE "D.Kabalevsky - 6 Joyful Songs: I. The cheerful king" PERFORMER "Z.Dolukhanova, B.Kozel, E.Grach" INDEX 00 47:30:70 INDEX 01 47:35:50 TRACK 23 AUDIO TITLE "II. If rivers and lakes would flow together" PERFORMER "Z.Dolukhanova, N.Svetlanova" INDEX 01 49:13:40 TRACK 24 AUDIO TITLE "III. A little boat" PERFORMER "Z.Dolukhanova, N.Svetlanova" INDEX 01 50:56:72 TRACK 25 AUDIO TITLE "IV. Story of a little old lady" PERFORMER "Z.Dolukhanova, N.Svetlanova" INDEX 01 52:24:42 TRACK 26 AUDIO TITLE "V. Nail and horseshoe" PERFORMER "Z.Dolukhanova, N.Svetlanova" INDEX 01 54:09:00 TRACK 27 AUDIO TITLE "VI. The key of the kingdom" PERFORMER "Z.Dolukhanova, N.Svetlanova" INDEX 01 55:30:32



Показать сообщения:    

Текущее время: 08-Дек 01:18

Часовой пояс: UTC + 3


Вы не можете начинать темы
Вы не можете отвечать на сообщения
Вы не можете редактировать свои сообщения
Вы не можете удалять свои сообщения
Вы не можете голосовать в опросах
Вы не можете прикреплять файлы к сообщениям
Вы не можете скачивать файлы