(Classical) Kim Kashkashian - Hayren: Music of Komitas and Tigran Mansurian - 2003, FLAC (tracks+.cue) lossless


 

[Цитировать]

Kim Kashkashian - Hayren: Music of Komitas and Tigran Mansurian
Жанр: Classical
Год издания диска: 2003
Издатель (лейбл): Ecm Records
Номер по каталогу:
Аудиокодек: FLAC
Тип рипа: tracks+.cue
Битрейт аудио: lossless
Продолжительность: 56’34
Источник: скачано из сети
Наличие сканов в содержимом раздачи: да
Треклист:
1. Tigran Mansurian. Havik (4:50)
2. Komitas. Garun a (3:22)
3. Krunk (2:23)
4. Chinar es (2:20)
5. Krunk (2) (2:28)
6. Hov arek (2:41)
7. Hoy, Nazan (2:29)
8. Krunk (3) (2:19)
9. Tsirani tsar (3:08)
10. Oror (2:33)
11. Antuni (5:51)
12. Oror (2) (1:30)
13. Tigran Mansurian. Duet for Viola and Percussion (18:22)
Исполнители:
Kim Kashkashian: Viola
Robyn Schulkowsky: Percussion
Tigran Mansurian: Piano and Voice

LOG EAC:

Exact Audio Copy V0.99 prebeta 4 from 23. January 2008
EAC extraction logfile from 22. October 2009, 16:34
Kim Kashkashian / Music of Komitas and Tigran Mansurian. Hayren
Used drive : HL-DT-STCD-RW GCE-8320B Adapter: 1 ID: 1
Read mode : Secure
Utilize accurate stream : Yes
Defeat audio cache : Yes
Make use of C2 pointers : No
Read offset correction : 12
Overread into Lead-In and Lead-Out : No
Fill up missing offset samples with silence : Yes
Delete leading and trailing silent blocks : No
Null samples used in CRC calculations : Yes
Used interface : Installed external ASPI interface
Gap handling : Appended to previous track
Used output format : User Defined Encoder
Selected bitrate : 320 kBit/s
Quality : High
Add ID3 tag : No
Command line compressor : C:\Program Files\Exact Audio Copy\Flac\flac.exe
Additional command line options : -8 -V -T "ARTIST=%a" -T "TITLE=%t" -T "ALBUM=%g" -T "DATE=%y" -T "TRACKNUMBER=%n" -T "TOTALTRACKS=%x" -T "GENRE=%m" -T "ALBUM ARTIST=%v" -T "ALBUMARTIST=%v" -T "COMMENT=EAC V0.99 prebeta 4, Secure Mode, Test & Copy, Accurat
TOC of the extracted CD
Track | Start | Length | Start sector | End sector
---------------------------------------------------------
1 | 0:00.00 | 4:50.65 | 0 | 21814
2 | 4:50.65 | 3:22.72 | 21815 | 37036
3 | 8:13.62 | 2:23.38 | 37037 | 47799
4 | 10:37.25 | 2:20.05 | 47800 | 58304
5 | 12:57.30 | 2:28.47 | 58305 | 69451
6 | 15:26.02 | 2:41.58 | 69452 | 81584
7 | 18:07.60 | 2:29.07 | 81585 | 92766
8 | 20:36.67 | 2:19.73 | 92767 | 103264
9 | 22:56.65 | 3:08.40 | 103265 | 117404
10 | 26:05.30 | 2:33.55 | 117405 | 128934
11 | 28:39.10 | 5:51.65 | 128935 | 155324
12 | 34:31.00 | 1:30.65 | 155325 | 162139
13 | 36:01.65 | 18:22.05 | 162140 | 244794
Track 1
Filename D:\Torrent\Kim Kashkashian - Hayren (2003) [FLAC]\01 - Tigran Mansurian. Havik.wav
Pre-gap length 0:00:02.00
Peak level 32.7 %
Track quality 99.9 %
Test CRC 3443B099
Copy CRC 3443B099
Cannot be verified as accurate (confidence 2) [55D20007], AccurateRip returned [F0E04407]
Copy OK
Track 2
Filename D:\Torrent\Kim Kashkashian - Hayren (2003) [FLAC]\02 - Komitas. Garun a.wav
Peak level 68.1 %
Track quality 100.0 %
Test CRC 2CC4F1A2
Copy CRC 2CC4F1A2
Cannot be verified as accurate (confidence 2) [0A6DC0E2], AccurateRip returned [4A14FB9B]
Copy OK
Track 3
Filename D:\Torrent\Kim Kashkashian - Hayren (2003) [FLAC]\03 - Komitas. Krunk.wav
Peak level 38.9 %
Track quality 100.0 %
Test CRC 9C097C06
Copy CRC 9C097C06
Cannot be verified as accurate (confidence 2) [59245F21], AccurateRip returned [3BCA39FE]
Copy OK
Track 4
Filename D:\Torrent\Kim Kashkashian - Hayren (2003) [FLAC]\04 - Komitas. Chinar es.wav
Peak level 21.4 %
Track quality 100.0 %
Test CRC C33C4A8C
Copy CRC C33C4A8C
Cannot be verified as accurate (confidence 2) [ECD3E7B1], AccurateRip returned [DEE33FF2]
Copy OK
Track 5
Filename D:\Torrent\Kim Kashkashian - Hayren (2003) [FLAC]\05 - Komitas. Krunk (2).wav
Peak level 60.0 %
Track quality 100.0 %
Test CRC 5C348BB5
Copy CRC 5C348BB5
Cannot be verified as accurate (confidence 2) [65591BD5], AccurateRip returned [D55CC7EF]
Copy OK
Track 6
Filename D:\Torrent\Kim Kashkashian - Hayren (2003) [FLAC]\06 - Komitas. Hov arek.wav
Peak level 34.5 %
Track quality 100.0 %
Test CRC 8546E6CC
Copy CRC 8546E6CC
Cannot be verified as accurate (confidence 2) [27DFCEEC], AccurateRip returned [4A8D76F8]
Copy OK
Track 7
Filename D:\Torrent\Kim Kashkashian - Hayren (2003) [FLAC]\07 - Komitas. Hoy, Nazan.wav
Peak level 74.6 %
Track quality 99.9 %
Test CRC FA095A50
Copy CRC FA095A50
Cannot be verified as accurate (confidence 2) [376A9158], AccurateRip returned [6010758B]
Copy OK
Track 8
Filename D:\Torrent\Kim Kashkashian - Hayren (2003) [FLAC]\08 - Komitas. Krunk (3).wav
Peak level 74.7 %
Track quality 100.0 %
Test CRC 6458FF40
Copy CRC 6458FF40
Cannot be verified as accurate (confidence 2) [3F2F752E], AccurateRip returned [E4FD10A4]
Copy OK
Track 9
Filename D:\Torrent\Kim Kashkashian - Hayren (2003) [FLAC]\09 - Komitas. Tsirani tsar.wav
Peak level 50.3 %
Track quality 100.0 %
Test CRC F74CFFBE
Copy CRC F74CFFBE
Cannot be verified as accurate (confidence 2) [9CA8E590], AccurateRip returned [1FC3B947]
Copy OK
Track 10
Filename D:\Torrent\Kim Kashkashian - Hayren (2003) [FLAC]\10 - Komitas. Oror.wav
Peak level 64.3 %
Track quality 99.9 %
Test CRC 34EDE253
Copy CRC 34EDE253
Cannot be verified as accurate (confidence 2) [E7DDA6D4], AccurateRip returned [BD690E41]
Copy OK
Track 11
Filename D:\Torrent\Kim Kashkashian - Hayren (2003) [FLAC]\11 - Komitas. Antuni.wav
Peak level 78.9 %
Track quality 100.0 %
Test CRC A8ADB96A
Copy CRC A8ADB96A
Track not present in AccurateRip database
Copy OK
Track 12
Filename D:\Torrent\Kim Kashkashian - Hayren (2003) [FLAC]\12 - Komitas. Oror (2).wav
Peak level 57.7 %
Track quality 100.0 %
Test CRC ADF503DB
Copy CRC ADF503DB
Cannot be verified as accurate (confidence 2) [A16F905B], AccurateRip returned [C45EC399]
Copy OK
Track 13
Filename D:\Torrent\Kim Kashkashian - Hayren (2003) [FLAC]\13 - Tigran Mansurian. Duet for Viola and Percussion.wav
Peak level 79.7 %
Track quality 100.0 %
Test CRC 22845CC0
Copy CRC 22845CC0
Track not present in AccurateRip database
Copy OK
11 track(s) could not be verified as accurate
2 track(s) not present in the AccurateRip database
No tracks could be verified as accurate
You may have a different pressing from the one(s) in the database
No errors occurred
End of status report

(.CUE)

REM GENRE Classical
REM DATE 2003
REM DISCID C60CBF0D
REM COMMENT "ExactAudioCopy v0.99pb4"
PERFORMER "Kim Kashkashian"
TITLE "Music of Komitas and Tigran Mansurian. Hayren"
FILE "01 - Tigran Mansurian. Havik.wav" WAVE
TRACK 01 AUDIO
TITLE "Tigran Mansurian. Havik"
PERFORMER "Kim Kashkashian"
INDEX 01 00:00:00
FILE "02 - Komitas. Garun a.wav" WAVE
TRACK 02 AUDIO
TITLE "Komitas. Garun a"
PERFORMER "Kim Kashkashian"
INDEX 01 00:00:00
FILE "03 - Komitas. Krunk.wav" WAVE
TRACK 03 AUDIO
TITLE "Komitas. Krunk"
PERFORMER "Kim Kashkashian"
INDEX 01 00:00:00
FILE "04 - Komitas. Chinar es.wav" WAVE
TRACK 04 AUDIO
TITLE "Komitas. Chinar es"
PERFORMER "Kim Kashkashian"
INDEX 01 00:00:00
FILE "05 - Komitas. Krunk (2).wav" WAVE
TRACK 05 AUDIO
TITLE "Komitas. Krunk (2)"
PERFORMER "Kim Kashkashian"
INDEX 01 00:00:00
FILE "06 - Komitas. Hov arek.wav" WAVE
TRACK 06 AUDIO
TITLE "Komitas. Hov arek"
PERFORMER "Kim Kashkashian"
INDEX 01 00:00:00
FILE "07 - Komitas. Hoy, Nazan.wav" WAVE
TRACK 07 AUDIO
TITLE "Komitas. Hoy, Nazan"
PERFORMER "Kim Kashkashian"
INDEX 01 00:00:00
FILE "08 - Komitas. Krunk (3).wav" WAVE
TRACK 08 AUDIO
TITLE "Komitas. Krunk (3)"
PERFORMER "Kim Kashkashian"
INDEX 01 00:00:00
FILE "09 - Komitas. Tsirani tsar.wav" WAVE
TRACK 09 AUDIO
TITLE "Komitas. Tsirani tsar"
PERFORMER "Kim Kashkashian"
INDEX 01 00:00:00
FILE "10 - Komitas. Oror.wav" WAVE
TRACK 10 AUDIO
TITLE "Komitas. Oror"
PERFORMER "Kim Kashkashian"
INDEX 01 00:00:00
FILE "11 - Komitas. Antuni.wav" WAVE
TRACK 11 AUDIO
TITLE "Komitas. Antuni"
PERFORMER "Kim Kashkashian"
INDEX 01 00:00:00
FILE "12 - Komitas. Oror (2).wav" WAVE
TRACK 12 AUDIO
TITLE "Komitas. Oror (2)"
PERFORMER "Kim Kashkashian"
INDEX 01 00:00:00
FILE "13 - Tigran Mansurian. Duet for Viola and Percussion.wav" WAVE
TRACK 13 AUDIO
TITLE "Tigran Mansurian. Duet for Viola and Percussion"
PERFORMER "Kim Kashkashian"
INDEX 01 00:00:00



Показать сообщения:    

Текущее время: 03-Дек 07:31

Часовой пояс: UTC + 3


Вы не можете начинать темы
Вы не можете отвечать на сообщения
Вы не можете редактировать свои сообщения
Вы не можете удалять свои сообщения
Вы не можете голосовать в опросах
Вы не можете прикреплять файлы к сообщениям
Вы не можете скачивать файлы