(Classical) Anna Mailian/Mayilyan - Treasures Of Light. The Spirit Of Armenian Sharkans (Komitas, Odznetsi, Mashtots, Yerznkatsi, Kapantsi, Narekatsi, Khorenatsi, Pagtasar Dpir, Shnorhali, Aghtamartsi) - 2002, FLAC (image+.cue) lossless


 

[Цитировать]

Anna Mailian - Treasures Of Light. The Spirit Of Armenian Sharkans
Жанр: Classical
Год издания диска: 2002
Издатель (лейбл): CCnC RECORDS
Номер по каталогу: CC02122
Аудиокодек: FLAC
Тип рипа: image+.cue
Битрейт аудио: lossless
Продолжительность: 57:34
Источник: собственный рип
Наличие сканов в содержимом раздачи: да
Треклист:
1. Humans Devoted-Hripsimeants sharakan (Komitas Katoghikos, VIIc/Grigor Arakelian) (3:57)
2. Kind Martyr, Christ-Nahatak bari, Qristos (Hovhan Odznetsi, VIIIc) (2:37)
3. Your Mercy is Abundant-Bazum en Qo gtutiunqd (Mesrop Mashtots, Vc) (2:26)
4. The Voice of the Father-Aisor dzainn Hairakan (Hovhannes Yerznkatsi, XIIIc/Grigor Arakelian) (6:06)
5. Breezes of Morn-Aravotian qachtsr ev anuish hovern (Petros Kapantsi, XVIIc) (3:28)
6. The Bird of Dove-Havoun havoun (Grigor Narekatsi, Xc) (2:51)
7. The Jewel Rose-Gohar Vardn (Grigor Narekatsi, Xc) (2:28)
8. Mother of Light-Zanchiareli lusoj Mair (Movses Khorenatsi, Vc) (3:36)
9. The Body of the Lord-Marmin Terunakan (Komitas-Liturgy) (1:06)
10. From Your Royal Sleep-Y nnjmaned arqaiakan (Pagtasar Dpir, XVIIIc/Grigor Arakelian) (4:49)
11. Light, Creator of Light-Luis, Araritchn lusoj (Nerses Shnorhali, XIIc) (2:14)
12. Each Morning at the Break of Dawn-Amen aravotev luis (Grigoris Aghtamartsi, XVIc/Grigor Arakelian) (2:11)
13. My Constant Pleadings-Hamenain jham (Mesrop Mashtots, Vc) (2:03)
14. Radiant Bird-Havik (Grigor Narekatsi, Xc) (2:37)
15. Open Us Lord-Bats mez, Ter (Unknown author and period/Grigor Arakelian) (3:58)
16. New Flower-Nor tsaghik (Nerses Shnorhali, XIIc) (2:34)
17. Good News to Us-Karos chatch (Unknown composer) (1:46)
18. The Powerful Voice-Ahegh dzains (Grigor Narekatsi, Xc) (3:16)
19. Christ is Revealed Among Us-Qristos I mej mer haitnetsav (Komitas-Liturgy) (1:16)
20. Where Are You, My Mother?-Ures, Mair im (Unknown composer and period) (2:08)
Исполнители:
Anna Mailian - mezzo-soprano
Grigor Arakelian - kaman and Arrangeur
Arkadi Pogosian - tar
Varazdat Hovhannisian - duduk
Armen Gazarian - duduk
Artur Grigorian - sring, shvi
Robert Durunts - percussion

LOG EAC:

Exact Audio Copy V0.99 prebeta 4 from 23. January 2008
EAC extraction logfile from 17. May 2010, 13:58
Anna Mailian / Trasures of Light
Used drive : ATAPI DVD A DH20A4P Adapter: 2 ID: 1
Read mode : Secure
Utilize accurate stream : Yes
Defeat audio cache : Yes
Make use of C2 pointers : No
Read offset correction : 6
Overread into Lead-In and Lead-Out : No
Fill up missing offset samples with silence : Yes
Delete leading and trailing silent blocks : No
Null samples used in CRC calculations : Yes
Used interface : Installed external ASPI interface
Used output format : User Defined Encoder
Selected bitrate : 768 kBit/s
Quality : High
Add ID3 tag : No
Command line compressor : C:\Program Files\Exact Audio Copy\Flac\flac.exe
Additional command line options : -6 -V -T "ARTIST=%a" -T "TITLE=%t" -T "ALBUM=%g" -T "DATE=%y" -T "TRACKNUMBER=%n" -T "GENRE=%m" -T "COMMENT=%e" %s -o %d
TOC of the extracted CD
Track | Start | Length | Start sector | End sector
---------------------------------------------------------
1 | 0:00.00 | 3:57.67 | 0 | 17841
2 | 3:57.67 | 2:37.65 | 17842 | 29681
3 | 6:35.57 | 2:26.03 | 29682 | 40634
4 | 9:01.60 | 6:06.02 | 40635 | 68086
5 | 15:07.62 | 3:28.63 | 68087 | 83749
6 | 18:36.50 | 2:51.25 | 83750 | 96599
7 | 21:28.00 | 2:28.30 | 96600 | 107729
8 | 23:56.30 | 3:36.07 | 107730 | 123936
9 | 27:32.37 | 1:06.10 | 123937 | 128896
10 | 28:38.47 | 4:49.05 | 128897 | 150576
11 | 33:27.52 | 2:14.03 | 150577 | 160629
12 | 35:41.55 | 2:11.57 | 160630 | 170511
13 | 37:53.37 | 2:03.45 | 170512 | 179781
14 | 39:57.07 | 2:37.35 | 179782 | 191591
15 | 42:34.42 | 3:58.40 | 191592 | 209481
16 | 46:33.07 | 2:34.05 | 209482 | 221036
17 | 49:07.12 | 1:46.13 | 221037 | 228999
18 | 50:53.25 | 3:16.42 | 229000 | 243741
19 | 54:09.67 | 1:16.15 | 243742 | 249456
20 | 55:26.07 | 2:08.35 | 249457 | 259091
Range status and errors
Selected range
Filename C:\Program Files\Exact Audio Copy\Flac\Anna Mailian - Trasures of Light.wav
Peak level 99.9 %
Range quality 100.0 %
Test CRC A966A6A8
Copy CRC A966A6A8
Copy OK
No errors occurred
AccurateRip summary
Track 1 accurately ripped (confidence 2) [25D4A01B]
Track 2 accurately ripped (confidence 2) [EB9185BD]
Track 3 accurately ripped (confidence 2) [B2BFBD65]
Track 4 accurately ripped (confidence 2) [6C979344]
Track 5 accurately ripped (confidence 2) [31A1618C]
Track 6 accurately ripped (confidence 2) [C097B625]
Track 7 accurately ripped (confidence 2) [FA499759]
Track 8 accurately ripped (confidence 2) [33441300]
Track 9 accurately ripped (confidence 2) [06747A2E]
Track 10 accurately ripped (confidence 2) [425A26C8]
Track 11 accurately ripped (confidence 2) [C8BDF8A0]
Track 12 accurately ripped (confidence 2) [2A7E3DCF]
Track 13 accurately ripped (confidence 2) [A86BF13A]
Track 14 accurately ripped (confidence 2) [F0DF0612]
Track 15 accurately ripped (confidence 2) [6934959C]
Track 16 accurately ripped (confidence 2) [0D894148]
Track 17 accurately ripped (confidence 2) [59AE091C]
Track 18 accurately ripped (confidence 2) [BD6DF4AC]
Track 19 accurately ripped (confidence 2) [366879FD]
Track 20 accurately ripped (confidence 2) [BBADE06A]
All tracks accurately ripped
End of status report



Показать сообщения:    

Текущее время: 04-Дек 06:54

Часовой пояс: UTC + 3


Вы не можете начинать темы
Вы не можете отвечать на сообщения
Вы не можете редактировать свои сообщения
Вы не можете удалять свои сообщения
Вы не можете голосовать в опросах
Вы не можете прикреплять файлы к сообщениям
Вы не можете скачивать файлы