(Classical) Classic Kathleen Battle: A Portrait (Puccini, Handel, Traditional, Vangelis, Mozart, Faure, Ellington, Mahler, Bach, Dvorak) - 2002, FLAC (tracks+.cue) lossless


 

[Цитировать]

Classic Kathleen Battle: A Portrait
Жанр: Classical
Год издания диска: 2002
Издатель (лейбл): Sony Classical
Номер по каталогу: SK 89464
Аудиокодек: FLAC
Тип рипа: tracks+.cue
Битрейт аудио: lossless - mp3
Продолжительность: 68:28
Источник: собственный рип
Наличие сканов в содержимом раздачи: да
Треклист:
1. Giacomo Puccini. O Mio Babbino Caro (2:31)
2. George Frideric Handel. Let the bright seraphim (5:34)
3. Traditional Christmas. Dormi Jesu (2:21)
4. Traditional. Cancion De Cuna (2:46)
5. Vangelis. Mythodea Movement IX (5:06)
6. Wolfgang Amadeus Mozart. Laudate Dominium (3:18)
7. Handel. Rejoice Greatly (4:20)
8. Traditional. Fix me Jesus (3:12)
9. Gabriel Faure. Pie Jesu (3:15)
10. Traditional Christmas. El noi de la mare (2:40)
11. Traditional Catalan. El desmbre congelat (1:37)
12. Ellington. Prelude to a Kiss (5:13)
13. Handel. Eternal Source of Light Divine (2:57)
14. Mozart. Alleluja (2:42)
15. Traditional American. Angels watching over me (1:16)
16. Gistav Mahler. Sehr Behaglich (10:49)
17. Johann Sebastian Bach. Jauzet Gott in allen laden (4:38)
18. Antonin Dvorak. Going Home (4:13)
Исполнители:
Kathleen Battle Primary Artist, Soprano (Vocal)
Wynton Marsalis Guest Artist, Trumpet
Jessye Norman Guest Artist, Soprano (Vocal)
Christopher Parkening Guitar
Grover Washington, Jr. Sax (Soprano)
Kenny Barron Guest Artist, Piano
James Carter Clarinet (Bass), Guest Artist
Cyrus Chestnut Guest Artist, Piano
Ira Coleman Bass
London Metropolitan Orchestra Orchestra
Romero Lubambo Guitar
Lorin Maazel Conductor
Christian McBride Bass
John Nelson Conductor
Orchestra of St. Luke's Orchestra
Vienna Philharmonic Orchestra Orchestra

LOG EAC:

Exact Audio Copy V1.0 beta 3 from 29. August 2011
EAC extraction logfile from 16. April 2014, 21:02
Kathleen Battle / Classic Kathleen Battle a Portrait
Used drive : PIONEER DVD-RW DVR-221L Adapter: 0 ID: 2
Read mode : Secure
Utilize accurate stream : Yes
Defeat audio cache : Yes
Make use of C2 pointers : No
Read offset correction : 6
Overread into Lead-In and Lead-Out : No
Fill up missing offset samples with silence : Yes
Delete leading and trailing silent blocks : No
Null samples used in CRC calculations : Yes
Used interface : Native Win32 interface for Win NT & 2000
Gap handling : Appended to previous track
Used output format : User Defined Encoder
Selected bitrate : 768 kBit/s
Quality : High
Add ID3 tag : No
Command line compressor : C:\Program Files\Exact Audio Copy\Flac\flac.exe
Additional command line options : -6 -V -T "ARTIST=%artist%" -T "TITLE=%title%" -T "ALBUM=%albumtitle%" -T "DATE=%year%" -T "TRACKNUMBER=%tracknr%" -T "GENRE=%genre%" -T "COMMENT=%comment%" -T "ALBUMARTIST=%albuminterpret%" -T "COMPOSER=%composer%" -T "DISCNUMBER=%cdnumber%" -T "TOTALDISCS=%totalcds%" -T "TOTALTRACKS=%numtracks%" %source% -o %dest%
TOC of the extracted CD
Track | Start | Length | Start sector | End sector
---------------------------------------------------------
1 | 0:00.00 | 2:31.20 | 0 | 11344
2 | 2:31.20 | 5:33.40 | 11345 | 36359
3 | 8:04.60 | 2:20.42 | 36360 | 46901
4 | 10:25.27 | 2:45.50 | 46902 | 59326
5 | 13:11.02 | 5:06.05 | 59327 | 82281
6 | 18:17.07 | 3:18.13 | 82282 | 97144
7 | 21:35.20 | 4:19.67 | 97145 | 116636
8 | 25:55.12 | 3:11.55 | 116637 | 131016
9 | 29:06.67 | 3:14.68 | 131017 | 145634
10 | 32:21.60 | 2:40.15 | 145635 | 157649
11 | 35:02.00 | 1:36.57 | 157650 | 164906
12 | 36:38.57 | 5:12.53 | 164907 | 188359
13 | 41:51.35 | 2:56.72 | 188360 | 201631
14 | 44:48.32 | 2:41.50 | 201632 | 213756
15 | 47:30.07 | 1:15.55 | 213757 | 219436
16 | 48:45.62 | 10:48.70 | 219437 | 268106
17 | 59:34.57 | 4:37.43 | 268107 | 288924
18 | 64:12.25 | 4:12.40 | 288925 | 307864
Track 1
Filename E:\EAC\01 Puccini. O Mio Babbino Caro.wav
Pre-gap length 0:00:02.00
Peak level 98.8 %
Extraction speed 4.4 X
Track quality 100.0 %
Test CRC 903754A6
Copy CRC 903754A6
Cannot be verified as accurate (confidence 4) [1054014D], AccurateRip returned [F53981D4] (AR v2)
Copy OK
Track 2
Filename E:\EAC\02 Handel. Let the bright seraphim.wav
Peak level 82.0 %
Extraction speed 5.5 X
Track quality 100.0 %
Test CRC F1039528
Copy CRC F1039528
Cannot be verified as accurate (confidence 4) [372343F7], AccurateRip returned [2480FABF] (AR v2)
Copy OK
Track 3
Filename E:\EAC\03 Traditional Chilean. Dormi Jesu.wav
Peak level 56.8 %
Extraction speed 5.2 X
Track quality 100.0 %
Test CRC C6F8A733
Copy CRC C6F8A733
Cannot be verified as accurate (confidence 4) [007384F0], AccurateRip returned [90FE8FA8] (AR v2)
Copy OK
Track 4
Filename E:\EAC\04 Traditional. Cancion De Cuna.wav
Peak level 35.6 %
Extraction speed 4.3 X
Track quality 99.9 %
Test CRC EF3DF2A8
Copy CRC EF3DF2A8
Cannot be verified as accurate (confidence 4) [BD0601B1], AccurateRip returned [648C4684] (AR v2)
Copy OK
Track 5
Filename E:\EAC\05 Vangelis. Mythodea Movement IX.wav
Peak level 90.0 %
Extraction speed 5.5 X
Track quality 99.9 %
Test CRC 800FE718
Copy CRC 800FE718
Cannot be verified as accurate (confidence 4) [E664352D], AccurateRip returned [C3A6ADB9] (AR v2)
Copy OK
Track 6
Filename E:\EAC\06 Mozart. Laudate Dominium.wav
Peak level 97.6 %
Extraction speed 5.1 X
Track quality 99.9 %
Test CRC EE864474
Copy CRC EE864474
Cannot be verified as accurate (confidence 4) [AC52333E], AccurateRip returned [9B78A877] (AR v2)
Copy OK
Track 7
Filename E:\EAC\07 Handel. Rejoice Greatly.wav
Peak level 93.6 %
Extraction speed 7.0 X
Track quality 100.0 %
Test CRC 50CD265F
Copy CRC 50CD265F
Cannot be verified as accurate (confidence 4) [7279CDE6], AccurateRip returned [2D4BC922] (AR v2)
Copy OK
Track 8
Filename E:\EAC\08 Traditional. Fix me Jesus.wav
Peak level 89.2 %
Extraction speed 7.1 X
Track quality 100.0 %
Test CRC 3BDC3ECB
Copy CRC 3BDC3ECB
Cannot be verified as accurate (confidence 4) [263C6B0B], AccurateRip returned [C67D4CDE] (AR v2)
Copy OK
Track 9
Filename E:\EAC\09 Faure. Pie Jesu.wav
Peak level 80.4 %
Extraction speed 7.3 X
Track quality 100.0 %
Test CRC 1E1B16AD
Copy CRC 1E1B16AD
Cannot be verified as accurate (confidence 4) [845E92F5], AccurateRip returned [26F8479F] (AR v2)
Copy OK
Track 10
Filename E:\EAC\10 Traditional Catalan. El noi de la mare.wav
Peak level 78.8 %
Extraction speed 7.2 X
Track quality 100.0 %
Test CRC EB0C48DB
Copy CRC EB0C48DB
Cannot be verified as accurate (confidence 4) [26559E84], AccurateRip returned [48E5C74D] (AR v2)
Copy OK
Track 11
Filename E:\EAC\11 Traditional Catalan. El desmbre congelat.wav
Peak level 94.1 %
Extraction speed 6.6 X
Track quality 100.0 %
Test CRC 1AEC0B22
Copy CRC 1AEC0B22
Cannot be verified as accurate (confidence 4) [5C08CDCA], AccurateRip returned [395EBCEF] (AR v2)
Copy OK
Track 12
Filename E:\EAC\12 Ellington. Prelude to a Kiss.wav
Peak level 79.9 %
Extraction speed 7.1 X
Track quality 99.9 %
Test CRC 78CA148E
Copy CRC 78CA148E
Cannot be verified as accurate (confidence 4) [4141DE54], AccurateRip returned [EFF8B8B4] (AR v2)
Copy OK
Track 13
Filename E:\EAC\13 Handel Eternal Source of Light Divine.wav
Peak level 84.1 %
Extraction speed 6.1 X
Track quality 99.9 %
Test CRC 5B7A9E85
Copy CRC 5B7A9E85
Cannot be verified as accurate (confidence 4) [480D250E], AccurateRip returned [D53413D1] (AR v2)
Copy OK
Track 14
Filename E:\EAC\14 Mozart. Alleluja.wav
Peak level 98.5 %
Extraction speed 6.1 X
Track quality 99.9 %
Test CRC 33198AF1
Copy CRC 33198AF1
Cannot be verified as accurate (confidence 4) [AA393629], AccurateRip returned [BDC6CA78] (AR v2)
Copy OK
Track 15
Filename E:\EAC\15 Traditional. Angels watching over me.wav
Peak level 47.6 %
Extraction speed 6.8 X
Track quality 100.0 %
Test CRC 7FED8AD9
Copy CRC 7FED8AD9
Cannot be verified as accurate (confidence 4) [8C6C2938], AccurateRip returned [ACE4E9C5] (AR v2)
Copy OK
Track 16
Filename E:\EAC\16 Mahler. Sehr Behaglich.wav
Peak level 88.3 %
Extraction speed 10.0 X
Track quality 100.0 %
Test CRC 053E321C
Copy CRC 053E321C
Cannot be verified as accurate (confidence 5) [7C4759A6], AccurateRip returned [FACF2DD6] (AR v2)
Copy OK
Track 17
Filename E:\EAC\17 J.S. Bach. Jauzet Gott in allen laden.wav
Peak level 98.8 %
Extraction speed 8.1 X
Track quality 99.9 %
Test CRC CE12874C
Copy CRC CE12874C
Cannot be verified as accurate (confidence 4) [EF70A03F], AccurateRip returned [55A91E1F] (AR v2)
Copy OK
Track 18
Filename E:\EAC\18 Dvorak. Going Home.wav
Peak level 56.2 %
Extraction speed 9.9 X
Track quality 100.0 %
Test CRC 8803BBD4
Copy CRC 8803BBD4
Cannot be verified as accurate (confidence 3) [AB286A51], AccurateRip returned [4C251015] (AR v2)
Copy OK
No tracks could be verified as accurate
You may have a different pressing from the one(s) in the database
No errors occurred
End of status report
==== Log checksum 8FB5696CE7530948681B8658C33723F0FF5EEA2D3E874DBEBAF307F0AD4A96D3 ====

(.CUE)

REM GENRE Classical
REM DATE 2002
REM DISCID 12100812
REM COMMENT "ExactAudioCopy v1.0b3"
PERFORMER "Kathleen Battle"
TITLE "Classic Kathleen Battle a Portrait"
FILE "01 Puccini. O Mio Babbino Caro.wav" WAVE
TRACK 01 AUDIO
TITLE "Puccini. O Mio Babbino Caro"
PERFORMER "Kathleen Battle"
INDEX 01 00:00:00
FILE "02 Handel. Let the bright seraphim.wav" WAVE
TRACK 02 AUDIO
TITLE "Handel. Let the bright seraphim"
PERFORMER "Kathleen Battle"
INDEX 01 00:00:00
FILE "03 Traditional Chilean. Dormi Jesu.wav" WAVE
TRACK 03 AUDIO
TITLE "Traditional Chilean. Dormi Jesu"
PERFORMER "Kathleen Battle"
INDEX 01 00:00:00
FILE "04 Traditional. Cancion De Cuna.wav" WAVE
TRACK 04 AUDIO
TITLE "Traditional. Cancion De Cuna"
PERFORMER "Kathleen Battle"
INDEX 01 00:00:00
FILE "05 Vangelis. Mythodea Movement IX.wav" WAVE
TRACK 05 AUDIO
TITLE "Vangelis. Mythodea Movement IX"
PERFORMER "Kathleen Battle"
INDEX 01 00:00:00
FILE "06 Mozart. Laudate Dominium.wav" WAVE
TRACK 06 AUDIO
TITLE "Mozart. Laudate Dominium"
PERFORMER "Kathleen Battle"
INDEX 01 00:00:00
FILE "07 Handel. Rejoice Greatly.wav" WAVE
TRACK 07 AUDIO
TITLE "Handel. Rejoice Greatly"
PERFORMER "Kathleen Battle"
INDEX 01 00:00:00
FILE "08 Traditional. Fix me Jesus.wav" WAVE
TRACK 08 AUDIO
TITLE "Traditional. Fix me Jesus"
PERFORMER "Kathleen Battle"
INDEX 01 00:00:00
FILE "09 Faure. Pie Jesu.wav" WAVE
TRACK 09 AUDIO
TITLE "Faure. Pie Jesu"
PERFORMER "Kathleen Battle"
INDEX 01 00:00:00
FILE "10 Traditional Catalan. El noi de la mare.wav" WAVE
TRACK 10 AUDIO
TITLE "Traditional Catalan. El noi de la mare"
PERFORMER "Kathleen Battle"
INDEX 01 00:00:00
FILE "11 Traditional Catalan. El desmbre congelat.wav" WAVE
TRACK 11 AUDIO
TITLE "Traditional Catalan. El desmbre congelat"
PERFORMER "Kathleen Battle"
INDEX 01 00:00:00
FILE "12 Ellington. Prelude to a Kiss.wav" WAVE
TRACK 12 AUDIO
TITLE "Ellington. Prelude to a Kiss"
PERFORMER "Kathleen Battle"
INDEX 01 00:00:00
FILE "13 Handel Eternal Source of Light Divine.wav" WAVE
TRACK 13 AUDIO
TITLE "Handel Eternal Source of Light Divine"
PERFORMER "Kathleen Battle"
INDEX 01 00:00:00
FILE "14 Mozart. Alleluja.wav" WAVE
TRACK 14 AUDIO
TITLE "Mozart. Alleluja"
PERFORMER "Kathleen Battle"
INDEX 01 00:00:00
FILE "15 Traditional. Angels watching over me.wav" WAVE
TRACK 15 AUDIO
TITLE "Traditional. Angels watching over me"
PERFORMER "Kathleen Battle"
INDEX 01 00:00:00
FILE "16 Mahler. Sehr Behaglich.wav" WAVE
TRACK 16 AUDIO
TITLE "Mahler. Sehr Behaglich"
PERFORMER "Kathleen Battle"
INDEX 01 00:00:00
FILE "17 J.S. Bach. Jauzet Gott in allen laden.wav" WAVE
TRACK 17 AUDIO
TITLE "J.S. Bach. Jauzet Gott in allen laden"
PERFORMER "Kathleen Battle"
INDEX 01 00:00:00
FILE "18 Dvorak. Going Home.wav" WAVE
TRACK 18 AUDIO
TITLE "Dvorak. Going Home"
PERFORMER "Kathleen Battle"
INDEX 01 00:00:00



Показать сообщения:    

Текущее время: 09-Дек 03:05

Часовой пояс: UTC + 3


Вы не можете начинать темы
Вы не можете отвечать на сообщения
Вы не можете редактировать свои сообщения
Вы не можете удалять свои сообщения
Вы не можете голосовать в опросах
Вы не можете прикреплять файлы к сообщениям
Вы не можете скачивать файлы