(Classical) Kiri Te Kanawa: Sorceress - A Handel Celebration / Георг Фридрих Гендель - Волшебница (Christopher Hogwood; The Academy of Ancient Music) - 1994, FLAC (tracks+.cue) lossless


 

[Цитировать]

Kiri Te Kanawa: Sorceress - A Handel Celebration / Георг Фридрих Гендель - Волшебница
(Christopher Hogwood; The Academy of Ancient Music)
Жанр: Classical
Год выпуска диска: 1994
Производитель диска: Philips; Polygram Records
Номер по каталогу: 434 992-2
Аудио кодек: FLAC (*.flac)
Тип рипа: tracks+.cue
Битрейт аудио: lossless
Источник: собственный рип
Продолжительность: 77:55
Orchestra: The Academy of Ancient Music
Conductor: Christopher Hogwood
Composer: George Frideric Handel
Треклист:
1. Overture; Rinaldo, HWV 7 (5:28)
2. Kiri Te Kanawa - Lascia ch'io pianga; Rinaldo, HWV 7 (4:15)
3. Overture; Alcina, HWV 34 (5:14)
4. Kiri Te Kanawa - Tu la mia stella sei; Giulio Cesare in Egitto, HWV 17 (5:10)
5. Sinfonia; Amadigi di Gaula, HWV 11 (2:25)
6. Kiri Te Kanawa – Sinfonia-V'adoro, pupille; Giulio Cesare in Egitto, HWV 17 (5:44)
7. Ballo-Musette; Ariodante, HWV 33 (2:30)
8. Kiri Te Kanawa - Bel piacere; Agrippina, HWV 6 (1:40)
9. Sinfonia; Admeto, Re di Tessaglia, HWV 22 (1:19)
10. Kiri Te Kanawa - Mi deride l'amante; Amadigi di Gaula, HWV 11 (5:55)
11. Kiri Te Kanawa - Ah! Ruggiero crudel-Ombre pallide; Alcina, HWV 34 (10:02)
12. Adagio; Giustino, HWV 37 (0:38)
13. Kiri Te Kanawa - Non disperar; Giulio Cesare in Egitto, HWV 17 (3:58)
14. Kiri Te Kanawa - Piangero la sorte mia; Giulio Cesare in Egitto, HWV 17 (5:46)
15. Menuet; Alcina, HWV 34 (1:50)

LOG EAC

Exact Audio Copy V1.0 beta 3 from 29. August 2011
EAC extraction logfile from 15. April 2014, 7:51
Kiri Te Kanawa / The Sorceress - Handel Celebration
Used drive : PIONEER DVD-RW DVR-221L Adapter: 0 ID: 2
Read mode : Secure
Utilize accurate stream : Yes
Defeat audio cache : Yes
Make use of C2 pointers : No
Read offset correction : 6
Overread into Lead-In and Lead-Out : No
Fill up missing offset samples with silence : Yes
Delete leading and trailing silent blocks : No
Null samples used in CRC calculations : Yes
Used interface : Native Win32 interface for Win NT & 2000
Gap handling : Appended to previous track
Used output format : User Defined Encoder
Selected bitrate : 768 kBit/s
Quality : High
Add ID3 tag : No
Command line compressor : C:\Program Files\Exact Audio Copy\Flac\flac.exe
Additional command line options : -6 -V -T "ARTIST=%artist%" -T "TITLE=%title%" -T "ALBUM=%albumtitle%" -T "DATE=%year%" -T "TRACKNUMBER=%tracknr%" -T "GENRE=%genre%" -T "COMMENT=%comment%" -T "ALBUMARTIST=%albuminterpret%" -T "COMPOSER=%composer%" -T "DISCNUMBER=%cdnumber%" -T "TOTALDISCS=%totalcds%" -T "TOTALTRACKS=%numtracks%" %source% -o %dest%
TOC of the extracted CD
Track | Start | Length | Start sector | End sector
---------------------------------------------------------
1 | 0:00.32 | 5:28.00 | 32 | 24631
2 | 5:28.32 | 4:15.00 | 24632 | 43756
3 | 9:43.32 | 5:14.00 | 43757 | 67306
4 | 14:57.32 | 5:10.00 | 67307 | 90556
5 | 20:07.32 | 2:25.00 | 90557 | 101431
6 | 22:32.32 | 5:44.00 | 101432 | 127231
7 | 28:16.32 | 2:30.00 | 127232 | 138481
8 | 30:46.32 | 1:40.00 | 138482 | 145981
9 | 32:26.32 | 1:19.48 | 145982 | 151954
10 | 33:46.05 | 5:55.27 | 151955 | 178606
11 | 39:41.32 | 10:02.00 | 178607 | 223756
12 | 49:43.32 | 0:38.00 | 223757 | 226606
13 | 50:21.32 | 3:58.00 | 226607 | 244456
14 | 54:19.32 | 5:46.00 | 244457 | 270406
15 | 60:05.32 | 1:51.00 | 270407 | 278731
Track 1
Filename E:\EAC\01 Rinaldo- Overture.wav
Pre-gap length 0:00:02.32
Peak level 47.8 %
Extraction speed 4.3 X
Track quality 99.9 %
Test CRC 0E7CD7B0
Copy CRC 0E7CD7B0
Accurately ripped (confidence 3) [652D842E] (AR v2)
Copy OK
Track 2
Filename E:\EAC\02 Rinaldo- Lascia ch'io pianga.wav
Pre-gap length 0:00:02.00
Peak level 75.4 %
Extraction speed 5.3 X
Track quality 100.0 %
Test CRC CD7F0F28
Copy CRC CD7F0F28
Accurately ripped (confidence 3) [79A20EF7] (AR v2)
Copy OK
Track 3
Filename E:\EAC\03 Alcina- Overture.wav
Pre-gap length 0:00:02.00
Peak level 54.3 %
Extraction speed 6.0 X
Track quality 100.0 %
Test CRC A0337193
Copy CRC A0337193
Accurately ripped (confidence 3) [C32BF5DE] (AR v2)
Copy OK
Track 4
Filename E:\EAC\04 Giulio Cesare- Tu la mia stella sei.wav
Peak level 95.1 %
Extraction speed 6.5 X
Track quality 100.0 %
Test CRC B551C51F
Copy CRC B551C51F
Accurately ripped (confidence 3) [0A6593F6] (AR v2)
Copy OK
Track 5
Filename E:\EAC\05 Amadigi- Sinfonia.wav
Pre-gap length 0:00:01.00
Peak level 51.6 %
Extraction speed 6.0 X
Track quality 100.0 %
Test CRC 68DE4D33
Copy CRC 68DE4D33
Accurately ripped (confidence 3) [EAEC947D] (AR v2)
Copy OK
Track 6
Filename E:\EAC\06 Giulio Cesare- Sinfonia.wav
Pre-gap length 0:00:01.00
Peak level 83.5 %
Extraction speed 7.3 X
Track quality 100.0 %
Test CRC 5DD2014E
Copy CRC 5DD2014E
Accurately ripped (confidence 3) [40A79260] (AR v2)
Copy OK
Track 7
Filename E:\EAC\07 Ariodante- Ballo.wav
Pre-gap length 0:00:02.00
Peak level 41.1 %
Extraction speed 6.7 X
Track quality 100.0 %
Test CRC 4AC16A14
Copy CRC 4AC16A14
Accurately ripped (confidence 3) [35997B5F] (AR v2)
Copy OK
Track 8
Filename E:\EAC\08 Agrippina- Bel piacere.wav
Peak level 61.0 %
Extraction speed 6.3 X
Track quality 100.0 %
Test CRC F785A19E
Copy CRC F785A19E
Accurately ripped (confidence 3) [58132761] (AR v2)
Copy OK
Track 9
Filename E:\EAC\09 Admeto- Sinfonia.wav
Peak level 44.4 %
Extraction speed 5.8 X
Track quality 100.0 %
Test CRC 755D0089
Copy CRC 755D0089
Accurately ripped (confidence 3) [EF908E92] (AR v2)
Copy OK
Track 10
Filename E:\EAC\10 Amadigi- Mi deride l'amante.wav
Peak level 100.0 %
Extraction speed 8.2 X
Track quality 100.0 %
Test CRC 00F571BF
Copy CRC 00F571BF
Accurately ripped (confidence 3) [ED499F31] (AR v2)
Copy OK
Track 11
Filename E:\EAC\11 Alcina- Ah! Ruggiero crudel - Ombre pallide.wav
Pre-gap length 0:00:02.00
Peak level 100.0 %
Extraction speed 9.2 X
Track quality 100.0 %
Test CRC 318DB107
Copy CRC 318DB107
Accurately ripped (confidence 3) [8F9543DD] (AR v2)
Copy OK
Track 12
Filename E:\EAC\12 Giustino- Adagio.wav
Pre-gap length 0:00:01.00
Peak level 23.0 %
Extraction speed 5.1 X
Track quality 100.0 %
Test CRC 2F90D067
Copy CRC 2F90D067
Accurately ripped (confidence 3) [BA9AC15D] (AR v2)
Copy OK
Track 13
Filename E:\EAC\13 Giulio Cesare- Non disperar.wav
Peak level 95.5 %
Extraction speed 8.8 X
Track quality 100.0 %
Test CRC DA63B39C
Copy CRC DA63B39C
Accurately ripped (confidence 3) [B1D84E9F] (AR v2)
Copy OK
Track 14
Filename E:\EAC\14 Giulio Cesare- Piangero la sorte mia.wav
Pre-gap length 0:00:03.00
Peak level 90.6 %
Extraction speed 9.6 X
Track quality 100.0 %
Test CRC 395CE8F7
Copy CRC 395CE8F7
Accurately ripped (confidence 3) [50794820] (AR v2)
Copy OK
Track 15
Filename E:\EAC\15 Alcina- Menuet.wav
Pre-gap length 0:00:01.00
Peak level 39.1 %
Extraction speed 7.3 X
Track quality 100.0 %
Test CRC D80C950D
Copy CRC D80C950D
Accurately ripped (confidence 3) [E41BC016] (AR v2)
Copy OK
All tracks accurately ripped
No errors occurred
End of status report
==== Log checksum 37A521D46F0F8A867B16C8242FB7A35EBB93EEA5DBFEA67051DBEACA047D2E7A ====

CUE

REM GENRE Classical
REM DATE 1994
REM DISCID E80E840F
REM COMMENT "ExactAudioCopy v1.0b3"
PERFORMER "Kiri Te Kanawa"
TITLE "The Sorceress - Handel Celebration"
FILE "01 Rinaldo- Overture.wav" WAVE
TRACK 01 AUDIO
TITLE "Rinaldo: Overture"
PERFORMER "Kiri Te Kanawa"
PREGAP 00:00:32
INDEX 01 00:00:00
TRACK 02 AUDIO
TITLE "Rinaldo: Lascia ch'io pianga"
PERFORMER "Kiri Te Kanawa"
INDEX 00 05:26:00
FILE "02 Rinaldo- Lascia ch'io pianga.wav" WAVE
INDEX 01 00:00:00
TRACK 03 AUDIO
TITLE "Alcina: Overture"
PERFORMER "Kiri Te Kanawa"
INDEX 00 04:13:00
FILE "03 Alcina- Overture.wav" WAVE
INDEX 01 00:00:00
FILE "04 Giulio Cesare- Tu la mia stella sei.wav" WAVE
TRACK 04 AUDIO
TITLE "Giulio Cesare: Tu la mia stella sei"
PERFORMER "Kiri Te Kanawa"
INDEX 01 00:00:00
TRACK 05 AUDIO
TITLE "Amadigi: Sinfonia"
PERFORMER "Kiri Te Kanawa"
INDEX 00 05:09:00
FILE "05 Amadigi- Sinfonia.wav" WAVE
INDEX 01 00:00:00
TRACK 06 AUDIO
TITLE "Giulio Cesare: Sinfonia"
PERFORMER "Kiri Te Kanawa"
INDEX 00 02:24:00
FILE "06 Giulio Cesare- Sinfonia.wav" WAVE
INDEX 01 00:00:00
TRACK 07 AUDIO
TITLE "Ariodante: Ballo"
PERFORMER "Kiri Te Kanawa"
INDEX 00 05:42:00
FILE "07 Ariodante- Ballo.wav" WAVE
INDEX 01 00:00:00
FILE "08 Agrippina- Bel piacere.wav" WAVE
TRACK 08 AUDIO
TITLE "Agrippina: Bel piacere"
PERFORMER "Kiri Te Kanawa"
INDEX 01 00:00:00
FILE "09 Admeto- Sinfonia.wav" WAVE
TRACK 09 AUDIO
TITLE "Admeto: Sinfonia"
PERFORMER "Kiri Te Kanawa"
INDEX 01 00:00:00
FILE "10 Amadigi- Mi deride l'amante.wav" WAVE
TRACK 10 AUDIO
TITLE "Amadigi: Mi deride l'amante"
PERFORMER "Kiri Te Kanawa"
INDEX 01 00:00:00
TRACK 11 AUDIO
TITLE "Alcina: Ah! Ruggiero crudel - Ombre pallide"
PERFORMER "Kiri Te Kanawa"
INDEX 00 05:53:27
FILE "11 Alcina- Ah! Ruggiero crudel - Ombre pallide.wav" WAVE
INDEX 01 00:00:00
TRACK 12 AUDIO
TITLE "Giustino: Adagio"
PERFORMER "Kiri Te Kanawa"
INDEX 00 10:01:00
FILE "12 Giustino- Adagio.wav" WAVE
INDEX 01 00:00:00
FILE "13 Giulio Cesare- Non disperar.wav" WAVE
TRACK 13 AUDIO
TITLE "Giulio Cesare: Non disperar"
PERFORMER "Kiri Te Kanawa"
INDEX 01 00:00:00
TRACK 14 AUDIO
TITLE "Giulio Cesare: Piangero la sorte mia"
PERFORMER "Kiri Te Kanawa"
INDEX 00 03:55:00
FILE "14 Giulio Cesare- Piangero la sorte mia.wav" WAVE
INDEX 01 00:00:00
TRACK 15 AUDIO
TITLE "Alcina: Menuet"
PERFORMER "Kiri Te Kanawa"
INDEX 00 05:45:00
FILE "15 Alcina- Menuet.wav" WAVE
INDEX 01 00:00:00

Описание

Действие первое:
В одной далекой стране жившая в ней колдунья по имени Альцина устроила званый бал, на котором очаровывала гостей своим прекрасным пением...
Действие второе:
Благородный принц Руджеро, которого неотвратимо влечет к Альцине не в силах совладать со своими чувствами к ней.
Но Брадаманте его невеста ревниво оберегает Руджеро от чар Альцины и встает между ними.
Тем не менее Альцине удается опутать Руджеро своими тёмными чарами...
Действие третье:
Руджеро не находит сил противиться чарам соблазнительной Альцины.
Тем временем Брадаманте прокравшись в будуар волшебницы находит способ дать ей отпор.
Действие четвертое:
Обманом завладев волшебным посохом Альцины, Брадаманте вновь завоевывает любовь Руджеро.
Узнав об этом Альцина клянется отомстить Брадаманте.
Действие пятое:
Пока Альцина сокрушается о потере молодого возлюбленного, Руджеро то же не находит себе места.
Не в силах забыть чар волшебницы, вспоминая о ней вновь и вновь он не выдерживает и возвращается к Альцине.
Video



Показать сообщения:    

Текущее время: 10-Дек 17:47

Часовой пояс: UTC + 3


Вы не можете начинать темы
Вы не можете отвечать на сообщения
Вы не можете редактировать свои сообщения
Вы не можете удалять свои сообщения
Вы не можете голосовать в опросах
Вы не можете прикреплять файлы к сообщениям
Вы не можете скачивать файлы