(Vocal, Orchestral) Модест Мусоргский - "Детская" в оркестровке Эдисона Денисова, Женитьба/ Modest Mussorgsky - The Marriage, The Nursery orchestrated by E.Denisov (Геннадий Рождественский, Ирина Муратова) - 2010, FLAC (tracks+.cue) lossles


 

[Цитировать]

Модест Мусоргский - "Детская" в оркестровке Эдисона Денисова, "Женитьба" - Геннадий Рождественский
Жанр: Vocal, Orchestra
Страна-производитель диска: Россия
Год издания диска: 2010
Издатель (лейбл): Мелодия
Номер по каталогу: MEL CD 10 01735
Дата записи: 1979, 1983
Аудиокодек: FLAC
Тип рипа: tracks+.cue
Битрейт аудио: lossless
Продолжительность: 54'11
Источник: скачано с what.cd (спасибо Л. М. Гоге)
Наличие сканов в содержимом раздачи: да
Треклист:
Модест Мусоргский (1839-1881)
Женитьба, Опыт драматической музыки в прозе по одноименной комедии Гоголя (1868, не окончена)
Оркестровка М.М. Ипполитова-Иванова (1931)

Действие I. Комната холостяка
01. Сцена 1 (9'39)
02. Сцена 2 (8'18)
03. Сцена 3 (7'30)
04. Сцена 4 (12'52)
Детская, вокальный цикл. Слова М.П. Мусоргского (1872)
Оркестровка Эдисона Денисова (1976)

05. С няней (2'06)
06. В углу (1'41)
07. Жук (2'28)
08. С куклой (1'52)
09. На сон грядущий (2'24)
10. Кот Матрос (1'53)
11. Поехал на палочке (3'24)
Исполнители:
"Женитьба"
Владимир Хрулев, баритон (Подколёсин)
Александр Подболотов, тенор (Кочкарёв)
Владимир Рыбасенко, бас (Степан)
Людмила Колмакова, меццо-сопрано (Фёкла Ивановна)
Государственный симфонический оркестр Министерства культуры СССР
Дирижёр Геннадий Рождественский
Запись 1983г.
"Детская"
Ирина Муратова, сопрано
Академический симфонический оркестр Московской филармонии
Дирижёр Геннадий Рождественский
Запись 1979г. из Большого зала Московской консерватории, первое исполнение в СССР

Лог создания рипа

X Lossless Decoder version 20131102 (145.0)
XLD extraction logfile from 2013-12-11 15:20:16 +0100
Gennady Rozhdestvensky / Mussorgsky - The Marriage & The Nursery
Used drive : MATSHITA DVD-R UJ-898 (revision HA07)Media type : Pressed CD
Ripper mode : XLD Secure RipperDisable audio cache : OK for the drive with a cache less than 1375KiBMake use of C2 pointers : NORead offset correction : 102Max retry count : 20Gap status : Analyzed, Appended (except HTOA)
TOC of the extracted CD Track | Start | Length | Start sector | End sector --------------------------------------------------------- 1 | 00:00:00 | 09:39:20 | 0 | 43444 2 | 09:39:20 | 08:18:35 | 43445 | 80829 3 | 17:57:55 | 07:30:57 | 80830 | 114636 4 | 25:28:37 | 12:52:39 | 114637 | 172575 5 | 38:21:01 | 02:06:38 | 172576 | 182063 6 | 40:27:39 | 01:41:04 | 182064 | 189642 7 | 42:08:43 | 02:28:23 | 189643 | 200765 8 | 44:36:66 | 01:52:10 | 200766 | 209175 9 | 46:29:01 | 02:24:11 | 209176 | 219986 10 | 48:53:12 | 01:53:37 | 219987 | 228498 11 | 50:46:49 | 03:24:43 | 228499 | 243841
AccurateRip Summary (DiscID: 001cc519-00e7ea95-990cb30b) Track 01 : OK (v2, confidence 1/1) Track 02 : OK (v2, confidence 1/1) Track 03 : OK (v2, confidence 1/1) Track 04 : OK (v2, confidence 1/1) Track 05 : OK (v2, confidence 1/1) Track 06 : OK (v2, confidence 1/1) Track 07 : OK (v2, confidence 1/1) Track 08 : OK (v2, confidence 1/1) Track 09 : OK (v2, confidence 1/1) Track 10 : OK (v2, confidence 1/1) Track 11 : OK (v2, confidence 1/1) ->All tracks accurately ripped.
All Tracks Album gain : 3.45 dB Peak : 0.930573 Statistics Read error : 0 Jitter error (maybe fixed) : 0 Retry sector count : 0 Damaged sector count : 0
Track 01 Filename : /Volumes/MUSIC/T/Modest Mussorgsky - The Marriage & The Nursery (2010) [FLAC]/01 - The Marriage - Act I. The Bachelor's Room - Scene One.flac Pre-gap length : 00:02:00
Track gain : 4.67 dB Peak : 0.930573 CRC32 hash (test run) : 8C84D976 CRC32 hash : 8C84D976 CRC32 hash (skip zero) : 55571D0C AccurateRip v1 signature : 1DBC5B01 AccurateRip v2 signature : 2AA628DD ->Accurately ripped (v2, confidence 1/1) Statistics Read error : 0 Jitter error (maybe fixed) : 0 Retry sector count : 0 Damaged sector count : 0
Track 02 Filename : /Volumes/MUSIC/T/Modest Mussorgsky - The Marriage & The Nursery (2010) [FLAC]/02 - The Marriage - Act I. The Bachelor's Room - Scene Two.flac
Track gain : 3.87 dB Peak : 0.827637 CRC32 hash (test run) : 9E9A45D0 CRC32 hash : 9E9A45D0 CRC32 hash (skip zero) : F8FB6972 AccurateRip v1 signature : 970B2FA1 AccurateRip v2 signature : 25394947 ->Accurately ripped (v2, confidence 1/1) Statistics Read error : 0 Jitter error (maybe fixed) : 0 Retry sector count : 0 Damaged sector count : 0
Track 03 Filename : /Volumes/MUSIC/T/Modest Mussorgsky - The Marriage & The Nursery (2010) [FLAC]/03 - The Marriage - Act I. The Bachelor's Room - Scene Three.flac
Track gain : 5.21 dB Peak : 0.628845 CRC32 hash (test run) : EBE2D5BF CRC32 hash : EBE2D5BF CRC32 hash (skip zero) : 5ADC8ACC AccurateRip v1 signature : 74344977 AccurateRip v2 signature : F26547F4 ->Accurately ripped (v2, confidence 1/1) Statistics Read error : 0 Jitter error (maybe fixed) : 0 Retry sector count : 0 Damaged sector count : 0
Track 04 Filename : /Volumes/MUSIC/T/Modest Mussorgsky - The Marriage & The Nursery (2010) [FLAC]/04 - The Marriage - Act I. The Bachelor's Room - Scene Four.flac
Track gain : 3.56 dB Peak : 0.901031 CRC32 hash (test run) : 4B74D392 CRC32 hash : 4B74D392 CRC32 hash (skip zero) : 2542B5CD AccurateRip v1 signature : B8E81A88 AccurateRip v2 signature : F93C53B0 ->Accurately ripped (v2, confidence 1/1) Statistics Read error : 0 Jitter error (maybe fixed) : 0 Retry sector count : 0 Damaged sector count : 0
Track 05 Filename : /Volumes/MUSIC/T/Modest Mussorgsky - The Marriage & The Nursery (2010) [FLAC]/05 - Vocal cycle 'The Nursery' - With Nanny.flac Pre-gap length : 00:02:00
Track gain : 3.65 dB Peak : 0.591278 CRC32 hash (test run) : 409049AD CRC32 hash : 409049AD CRC32 hash (skip zero) : BF6AC595 AccurateRip v1 signature : 5041FC4F AccurateRip v2 signature : 772E40FB ->Accurately ripped (v2, confidence 1/1) Statistics Read error : 0 Jitter error (maybe fixed) : 0 Retry sector count : 0 Damaged sector count : 0
Track 06 Filename : /Volumes/MUSIC/T/Modest Mussorgsky - The Marriage & The Nursery (2010) [FLAC]/06 - Vocal cycle 'The Nursery' - In the Corner.flac
Track gain : 6.93 dB Peak : 0.543152 CRC32 hash (test run) : 31D0B847 CRC32 hash : 31D0B847 CRC32 hash (skip zero) : E0CB93FB AccurateRip v1 signature : E0EB5FB2 AccurateRip v2 signature : 3631B17E ->Accurately ripped (v2, confidence 1/1) Statistics Read error : 0 Jitter error (maybe fixed) : 0 Retry sector count : 0 Damaged sector count : 0
Track 07 Filename : /Volumes/MUSIC/T/Modest Mussorgsky - The Marriage & The Nursery (2010) [FLAC]/07 - Vocal cycle 'The Nursery' - The Beetle.flac
Track gain : -1.00 dB Peak : 0.768250 CRC32 hash (test run) : 5BD4863F CRC32 hash : 5BD4863F CRC32 hash (skip zero) : 82290D8F AccurateRip v1 signature : B097DC88 AccurateRip v2 signature : 02AE53F6 ->Accurately ripped (v2, confidence 1/1) Statistics Read error : 0 Jitter error (maybe fixed) : 0 Retry sector count : 0 Damaged sector count : 0
Track 08 Filename : /Volumes/MUSIC/T/Modest Mussorgsky - The Marriage & The Nursery (2010) [FLAC]/08 - Vocal cycle 'The Nursery' - With the Doll.flac
Track gain : 4.17 dB Peak : 0.389771 CRC32 hash (test run) : 648A256A CRC32 hash : 648A256A CRC32 hash (skip zero) : D47C2805 AccurateRip v1 signature : 44615974 AccurateRip v2 signature : 47650197 ->Accurately ripped (v2, confidence 1/1) Statistics Read error : 0 Jitter error (maybe fixed) : 0 Retry sector count : 0 Damaged sector count : 0
Track 09 Filename : /Volumes/MUSIC/T/Modest Mussorgsky - The Marriage & The Nursery (2010) [FLAC]/09 - Vocal cycle 'The Nursery' - At Bedtime.flac
Track gain : 3.16 dB Peak : 0.729767 CRC32 hash (test run) : 081F1211 CRC32 hash : 081F1211 CRC32 hash (skip zero) : B42D8826 AccurateRip v1 signature : A0F89E9C AccurateRip v2 signature : E195379C ->Accurately ripped (v2, confidence 1/1) Statistics Read error : 0 Jitter error (maybe fixed) : 0 Retry sector count : 0 Damaged sector count : 0
Track 10 Filename : /Volumes/MUSIC/T/Modest Mussorgsky - The Marriage & The Nursery (2010) [FLAC]/10 - Vocal cycle 'The Nursery' - The Cat 'Sailor'.flac
Track gain : 2.21 dB Peak : 0.858978 CRC32 hash (test run) : FF12A2DB CRC32 hash : FF12A2DB CRC32 hash (skip zero) : B9CA6A5F AccurateRip v1 signature : 3B499897 AccurateRip v2 signature : 8E1C821F ->Accurately ripped (v2, confidence 1/1) Statistics Read error : 0 Jitter error (maybe fixed) : 0 Retry sector count : 0 Damaged sector count : 0
Track 11 Filename : /Volumes/MUSIC/T/Modest Mussorgsky - The Marriage & The Nursery (2010) [FLAC]/11 - Vocal cycle 'The Nursery' - Ride on a Stick Horse.flac
Track gain : 0.20 dB Peak : 0.814301 CRC32 hash (test run) : 1A26E28D CRC32 hash : 1A26E28D CRC32 hash (skip zero) : ABF75631 AccurateRip v1 signature : 32AB8BC4 AccurateRip v2 signature : CA8C9E87 ->Accurately ripped (v2, confidence 1/1) Statistics Read error : 0 Jitter error (maybe fixed) : 0 Retry sector count : 0 Damaged sector count : 0
No errors occurred
End of status report
-----BEGIN XLD SIGNATURE-----.sNZwFtpgfwrVa835at4swPLafPtSAEUjl5MZup74IchCmNhPotEAsZfGycCT8Z6JFq4wFgU3Xn9rR0u6CRp3RqlJopYLEvRU7mBnAy-----END XLD SIGNATURE-----

Содержание индексной карты (.CUE)

PERFORMER "Gennady Rozhdestvensky"TITLE "Mussorgsky - The Marriage & The Nursery"REM GENRE "Classical"REM DATE "2010"REM DISCNUMBER 1REM TOTALDISCS 1REM DISCID 990CB30BFILE "01 - The Marriage - Act I. The Bachelor's Room - Scene One.wav" WAVE TRACK 01 AUDIO TITLE "The Marriage - Act I. The Bachelor's Room - Scene One" PERFORMER "Vladimir Khrulev, Alexander Podbolotov, Vladimir Rybasenko, Lyudmila Kolmakova, USSR Ministry of Culture Symphony Orchestra, Gennady Rozhdestvensky" SONGWRITER "Modest Mussorgsky" INDEX 01 00:00:00FILE "02 - The Marriage - Act I. The Bachelor's Room - Scene Two.wav" WAVE TRACK 02 AUDIO TITLE "The Marriage - Act I. The Bachelor's Room - Scene Two" PERFORMER "Vladimir Khrulev, Alexander Podbolotov, Vladimir Rybasenko, Lyudmila Kolmakova, USSR Ministry of Culture Symphony Orchestra, Gennady Rozhdestvensky" SONGWRITER "Modest Mussorgsky" INDEX 01 00:00:00FILE "03 - The Marriage - Act I. The Bachelor's Room - Scene Three.wav" WAVE TRACK 03 AUDIO TITLE "The Marriage - Act I. The Bachelor's Room - Scene Three" PERFORMER "Vladimir Khrulev, Alexander Podbolotov, Vladimir Rybasenko, Lyudmila Kolmakova, USSR Ministry of Culture Symphony Orchestra, Gennady Rozhdestvensky" SONGWRITER "Modest Mussorgsky" INDEX 01 00:00:00FILE "04 - The Marriage - Act I. The Bachelor's Room - Scene Four.wav" WAVE TRACK 04 AUDIO TITLE "The Marriage - Act I. The Bachelor's Room - Scene Four" PERFORMER "Vladimir Khrulev, Alexander Podbolotov, Vladimir Rybasenko, Lyudmila Kolmakova, USSR Ministry of Culture Symphony Orchestra, Gennady Rozhdestvensky" SONGWRITER "Modest Mussorgsky" INDEX 01 00:00:00 TRACK 05 AUDIO TITLE "Vocal cycle 'The Nursery' - With Nanny" PERFORMER "Irina Muratova, Moscow Philharmonic Orchestra, Gennady Rozhdestvensky" SONGWRITER "Modest Mussorgsky" INDEX 00 12:50:39FILE "05 - Vocal cycle 'The Nursery' - With Nanny.wav" WAVE INDEX 01 00:00:00FILE "06 - Vocal cycle 'The Nursery' - In the Corner.wav" WAVE TRACK 06 AUDIO TITLE "Vocal cycle 'The Nursery' - In the Corner" PERFORMER "Irina Muratova, Moscow Philharmonic Orchestra, Gennady Rozhdestvensky" SONGWRITER "Modest Mussorgsky" INDEX 01 00:00:00FILE "07 - Vocal cycle 'The Nursery' - The Beetle.wav" WAVE TRACK 07 AUDIO TITLE "Vocal cycle 'The Nursery' - The Beetle" PERFORMER "Irina Muratova, Moscow Philharmonic Orchestra, Gennady Rozhdestvensky" SONGWRITER "Modest Mussorgsky" INDEX 01 00:00:00FILE "08 - Vocal cycle 'The Nursery' - With the Doll.wav" WAVE TRACK 08 AUDIO TITLE "Vocal cycle 'The Nursery' - With the Doll" PERFORMER "Irina Muratova, Moscow Philharmonic Orchestra, Gennady Rozhdestvensky" SONGWRITER "Modest Mussorgsky" INDEX 01 00:00:00FILE "09 - Vocal cycle 'The Nursery' - At Bedtime.wav" WAVE TRACK 09 AUDIO TITLE "Vocal cycle 'The Nursery' - At Bedtime" PERFORMER "Irina Muratova, Moscow Philharmonic Orchestra, Gennady Rozhdestvensky" SONGWRITER "Modest Mussorgsky" INDEX 01 00:00:00FILE "10 - Vocal cycle 'The Nursery' - The Cat 'Sailor'.wav" WAVE TRACK 10 AUDIO TITLE "Vocal cycle 'The Nursery' - The Cat 'Sailor'" PERFORMER "Irina Muratova, Moscow Philharmonic Orchestra, Gennady Rozhdestvensky" SONGWRITER "Modest Mussorgsky" INDEX 01 00:00:00FILE "11 - Vocal cycle 'The Nursery' - Ride on a Stick Horse.wav" WAVE TRACK 11 AUDIO TITLE "Vocal cycle 'The Nursery' - Ride on a Stick Horse" PERFORMER "Irina Muratova, Moscow Philharmonic Orchestra, Gennady Rozhdestvensky" SONGWRITER "Modest Mussorgsky" INDEX 01 00:00:00
Доп. информация: Подробную информацию о сочинениях можно найти в мелодиевском буклете. "Женитьба", поэтому решил сделать акцент на оркестровой версии "Детской".
Эдисон Денисов оркестровал три вокальных цикла Мусоргского - "Детская" (1976), "Без солнца" (1981) и "Песни и пляски смерти" (1983). Исходный материал Мусоргского Денисов трактует как предварительный эскиз оркестровой версии. Так как Мусоргский в своей музыке смотрел в будущее гораздо дальше, чем его современники, то открывается возможность естественного сближения и оркестровых красок с миром звучаний XX века, применения приемов, корреспондирующих с оркестровой палитрой Дебюсси или Малера. В оркестровке "Детской" встречаются, например, пассажи целотоновых аккордов glissando в сочетании с гаммами флажолетов контрабасов и виолончелей. Пусть и очень осторожно, но применяются тембры вибрафона и челесты, инструментов, на которые не мог бы рассчитывать сам Мусоргский. Сочетания тембров челесты, колокольчиков, арфы, ксилофона неуловимо напоминают звучания музыки XX века, а мелодизированный речитатив, преобладающий во всем цикле, удивительно точно воспроизводящий детские интонации, все тончайшие оттенки живой детской речи, подслушанные Мусоргским, поддерживаемый большим оркестром, блистает новыми красками.



Показать сообщения:    

Текущее время: 08-Дек 19:11

Часовой пояс: UTC + 3


Вы не можете начинать темы
Вы не можете отвечать на сообщения
Вы не можете редактировать свои сообщения
Вы не можете удалять свои сообщения
Вы не можете голосовать в опросах
Вы не можете прикреплять файлы к сообщениям
Вы не можете скачивать файлы