(Chamber, Vocal) Кароль Шимановский - Полное собрание песен / Karol Szymanowski - Complete Songs for Voice and Piano (Piotr Beczala, Juliana Gondek, Urszula Kryger, Iwona Sobotka, Reinild Mees) 4CD - 2004, FLAC (image+.cue) lossless


 

[Цитировать]

Karol Szymanowski - Complete Songs for Voice and Piano
Жанр: Chamber, Vocal
Страна-производитель диска: Germany
Год издания диска: 2004
Издатель (лейбл): Channel Classics
Номер по каталогу: CCS19398
Дата записи: 2004
Аудиокодек: FLAC
Тип рипа: image+.cue
Битрейт аудио: lossless
Продолжительность: 4:23:17 (69:20/66:44/67:30/60:13)
Источник: скачано с
Наличие сканов в содержимом раздачи: да
Треклист:
Karol Szymanowski (1882-1937)

CD 1: Songs Op.2 (1900)/Op.5 (1902)/Op.7 (1904)/Op.11 (1905)/Op.13 (1907)/Op.32 (1915)/Soldiers Songs (1920)

Six Songs (K.Tetmajer), Op.2 (1900-1902)
I. Daleko zostal caly swiat (The world is left far behind) (2:34)
II. Tys nie umarla (You are not dead) (1:52)
III. We mglach (In the mists) (1:47)
IV. Czasem,gdy dlugo na pol sennie marze (Sometimes when long I drowsili dream) (2:24)
V. Slyszalem ciebie (I heard you) (2:27)
VI. Pielgrzym (The pilgrim) (2:04)
Three Poems by Jan Kasprowicz, Op. 5 (1902)
1. Swiety Boze (Holy God!) (6:27)
2. Jestem i placze (I am and I weep) (5:25)
3. Moja piesn wieczorna (My evening song) (5:12)
Labedz (The Swan), (V.Berent), Op. 7 (1904) (3:34)
Four Songs (T.Micinski), Op.11 (1905)
I. Tak jestem smetny (Joyless I am) (3:18)
II. W zaczarowanym lesie (In the enchanted forest) (2:20)
III. Nade mna leci w szafir morza (Flying over me into the sapphire of the sea) (1:40)
IV. Rycz burzo! (Roar, storm!) (2:27)
Piosenki Zolnierskie (Soldiers Songs) (1920)
1. Do dziewczyny (To a girl) (1:58)
2. O zwiedzionym zolnierzu (The outsmarted soldier) (2:34)
3. Wyszywala raz Hanka (Hanka was embroidering) (1:20)
Idom se siuhaje dolu, spiewajecy (Young highlanders descend, singing) (1:14)
Five Songs (Dehmel, Des Knaben Wunderhorn, Bodenstedt, Bierbaum) Op.13 (1907)
I. Stimme im Dunkeln (Voice in the dark) (2:17)
II. Christkindleins Wiegenlied (The Christchild's lullaby) (3:12)
III. Auf See (At sea) (1:50)
IV. Zuleikha (Suleika) (2:21)
V. Die schwarze Laute (The black lute) (2:27)
Три песни на стихи Дениса Давыдова (Three Songs), Op.32 (1915)
1. Как только Восток (Sunrise) (1:55)
2. Небо без звёзд (Starless sky) (2:13)
3. Осеннее солнце (Autumnal sun) (2:19)

CD 2: Colorfull songs, Op.22 (1910)/Songs of an Infatuated Muezzin, Op.42 (1918)/Op.54 (1926)/ 12 Kurpian Songs, Op.58 (1932)

Bunte Lieder (Colorfull songs) (Bulcke, Paquet, Faktor, Ritter, Huch), Op.22 (1910)
I. Einsiedel (The hermit) (2:02)
II. Lied des Madchens am Fenster (Song of the girl at the window) (2:45)
III. An kleine Madchen (For little girl) (2:25)
IV. Das hat die Sommernacht getan (That is what the summer night did) (1:58)
V. Bestimmung (Destiny) (1:49)
Pesni muezina szalonego (Songs of an Infatuated Muezzin) (J.Iwaszkiewicz), Op.42 (1918)
1. Allah, Allah Akbar (Allah Akbar) (2:40)
2. O, ukochana ma! (O my belved!) (1:55)
3. Ledwie blask slonca (The barely golden sun) (2:56)
4. W poludnie (At noon) (2:17)
5. O tej godzinie (At this hour) (2:55)
6. Odeszlas w pustynie (You departed) (3:25)
Seven Songs (James Joyce) Op.54 (1926)
1. Gentle lady, do not sing (1:48)
2. Sleep now (1:31)
3. Lean out of the window (1:06)
4. My dove, my beautiful one (1:43)
5. Strings in the earth (1:18)
6. Winds of may (1:09)
7. Rain has fallen (1:41)
Piesni Kurpiowski (12 Kurpian Songs), Op. 58 (1930-32)
1. Lecioly zorazie (The cranes where flying) (1:49)
2. Wysla burzycka (The storm has come) (1:55)
3. Uwoz, mamo (Beware, mother) (2:09)
4. U jeziorecka (By the lake) (2:25)
5. A pod borem siwe kunie (Grey horses by the forest) (2:36)
6. Bzicem kunia (Hurry the horse) (2:26)
7. Sciani dumbek (Felled oak) (1:52)
8. Lec, glosie, po rosie (Fly, my voice, over the dew) (1:45)
9. Zarzyjze, kuniu (Neigh, horse) (3:08)
10. Ciamna nocka, ciamna (Dark is the night, dark) (1:58)
11. Wysly rybki, wysly (The fish are gone, gone) (1:56)
12. Wsyscy przjechali (All the folks have arrived) (2:31)
Dans les pres fleurs (In the flowering meadous) (2:36)

CD 3: Songs Op.20 (1910)/Love Songs of Hafis op.24 (1911)/Op.41 (1918)/12 songs Op.17 (1907)

Six Songs (T.Micinski) Op.20 (1910)
1. Na ksiezycu czarnym (On the black moon) (1:52)
2. Swiety Franciszek mowi (Saint Francis says) (1:53)
3. Pachna mi dziwnie twoje zlote slowy (I can sense the exquisite fragrance of your golden hair) (3:10)
4. W mym sercu (In my heart) (2:07)
5. Z maurytanskich spiewnych sal (From Moorish singing halls) (1:37)
6. Na pustej trzcinie (On a hollow reed) (2:36)
Love Songs of Hafis (Bethge) Op.24 (1911)
I. Wunsche (Wishes) (1:25)
II. Die einzige Arzenei (The only medicine) (1:44)
III. Die brennenden Tulpen (The burning tulips) (2:32)
IV. Tanz (Dance) (2:06)
V. Der verliebte Ostwind (The lovesick East wind) (2:02)
VI. Trauriger Fruhling (Sad spring) (2:12)
Das Grab des Hafis (The Grave of Hafis) (Bethge), Op. posth (5:23)
Four Songs (R.Tagore) Op.41 (1918)
1. Mein Herz (My heart) (2:33)
2. Der junge Prinz (The young prince) I (3:05)
3. Der junge Prinz (The young prince) II (3:00)
4. Das letzte Lied (The last song) (2:19)
Twelve Songs (Dehmel, Mombert, Falke, Greif) Op.17 (1907)
I. Hoch in der Fruhe (Up light at an early hour) (2:03)
II. Gehimnis (A secret) (1:45)
III. Werbung (Courtship) (1:41)
IV. Manche Nacht (Some night) (2:42)
V. Aufblick (Revelation) (3:34)
VI. Verkundigung (The annunciation) (1:57)
VII. Nach einem Regen (After the rain) (1:27)
VIII. Entfuhrung (Abduction) (2:06)
IX. Schlummerlied (Slumber song) (1:48)
X. Seele (Soul) (1:47)
XI. Fragment (aus from Der Gluhende) (1:39)
XII. Liebesnacht (Night of love) (3:11)

CD 4: Songs of the Fairy Princess, Op.31 (1915)/Slopiewnie, Op.46 (1920)/Lullabies, Op.48 (1922)/Children's Rhymes, Op.49 (1929)

Piesni Ksiezniczki z basni (Songs of the Fairy Princess) (Z.Szymanowska) Op.31 (1915)
I. Samotny ksiezyc (Lonely moon) (4:00)
II. Slowik (The nightingale) (2:43)
III. Zlote trzewiczki (Golden slippe) (2:28)
IV. Taniec (A dance) (2:06)
V. Piesn o fali (The Song of the Wave) (3:19)
VI. Uczta (A feast) (2:36)
Slopiewnie (J.Tuwim) Op.46 (1920)
I. Slowisien (Cherrywords) (1:51)
II. Zielone slowa (Green words) (1:43)
III. Sw. Franciszek (St. Francis) (1:55)
IV. Kalinowe dwory (Red song) (1:03)
V. Wanda (2:26)
Trzy kolysanki (Three Lullabies) (Iwaszkiewicz), Op.48 (1922)
I. Pochyl sie cicho nad kolyska (Bend silently over the cradle) (1:35)
II. Spiewam morzu, gwiazdom i tobie (I sing to the sea) (1:23)
III. Bialy krag ksiezyca albrzymi (White giant circle of the moon) (1:41)
Children's Rhymes (K.Illakowicz), Op.49 (1929)
1. Przed zasnieciem (Before falling asleep) (1:07)
2. Jak sie najlepiej opedzac od szerszenia (How to best get away from a hornet) (0:54)
3. Mieszkanie (Home) (0:51)
4. Prosie (Piglet) (0:51)
5. Gwiazdka (Christmas) (1:05)
6. Slub krolewny (The Princess' wedding) (1:42)
7. Trzmiel i zuk (The bumblebee and the beetle) (0:45)
8. Swieta Krystyna (Saint Krystyna) (1:15)
9. Wiosna (Spring) (0:50)
10. Kilysanka Lalek (The dolls, lullaby) (0:49)
11. Gil i sroka (The bullfinch and the magpie) (0:44)
12. Smutek (The sad one) (1:17)
13. Wizyta u krowy (A visit at the cow's) (1:01)
14. Kolysanka Krzysi (Krzysia's lullaby) (1:26)
15. Kot (The cat) (1:24)
16. Kolysanka Lalki (Lalka's lullaby) (0:49)
17. Myszy (Mice) (0:48)
18. Zly Lejba (The cheating shopkeeper) (2:15)
19. Kolysanka gniadego konia (The bay-horse's lullaby) (1:33)
20. Nikczemny szpak (The ill-tempered starling) (1:56)
Vocalise-Etude (Vocalise-Study) (1928) (3:18)
Samotny ksiezyc (Lonely moon), Op.31 nr.1a (2:23)
Исполнители:
Piotr Beczala, tenor (CD 1)
Juliana Gondek, soprano (CD 2)
Urszula Kryger, mezzo-soprano (CD 3)
Iwona Sobotka, soprano (CD 4)
Reinild Mees, piano

Лог создания рипа

CD 1
EAC extraction logfile from 11. September 2007, 22:08 for CDSzymanowski / Complete Songs for voice and piano - Vol. I
Used drive : TSSTcorpCD/DVDW SH-W162L Adapter: 1 ID: 0Read mode : Secure with NO C2, accurate stream, disable cacheRead offset correction : 6Overread into Lead-In and Lead-Out : No
Used output format : C:\Program Files\EAC\flac.exe (User Defined Encoder) 320 kBit/s Additional command line options : -6 -V -T "ARTIST=%a" -T "TITLE=%t" -T "ALBUM=%g" -T "DATE=%y" -T "TRACKNUMBER=%n" -T "GENRE=%m" -T "COMMENT=EAC Flac 1.1.2 -5" %s
Other options : Fill up missing offset samples with silence : Yes Delete leading and trailing silent blocks : No Native Win32 interface for Win NT & 2000
Range status and errorsSelected range Filename D:\Unknown Artist - Complete Songs for voice and piano - Vol. I.flac.wav
Peak level 89.3 % Range quality 99.9 % CRC A0879F42 Copy OK
No errors occured
End of status report
CD 2
EAC extraction logfile from 11. September 2007, 23:01 for CDSzymanowski / Complete Songs for voice and piano - Vol. II
Used drive : TSSTcorpCD/DVDW SH-W162L Adapter: 1 ID: 0Read mode : Secure with NO C2, accurate stream, disable cacheRead offset correction : 6Overread into Lead-In and Lead-Out : No
Used output format : C:\Program Files\EAC\flac.exe (User Defined Encoder) 320 kBit/s Additional command line options : -6 -V -T "ARTIST=%a" -T "TITLE=%t" -T "ALBUM=%g" -T "DATE=%y" -T "TRACKNUMBER=%n" -T "GENRE=%m" -T "COMMENT=EAC Flac 1.1.2 -5" %s
Other options : Fill up missing offset samples with silence : Yes Delete leading and trailing silent blocks : No Native Win32 interface for Win NT & 2000
Range status and errorsSelected range Filename D:\Unknown Artist - Complete Songs for voice and piano - Vol. II.flac.wav
Peak level 97.9 % Range quality 99.9 % CRC 0D33497C Copy OK
No errors occured
End of status report
CD 3
EAC extraction logfile from 11. September 2007, 23:31 for CDSzymanowski / Complete Songs for voice and piano - Vol. III
Used drive : TSSTcorpCD/DVDW SH-W162L Adapter: 1 ID: 0Read mode : Secure with NO C2, accurate stream, disable cacheRead offset correction : 6Overread into Lead-In and Lead-Out : No
Used output format : C:\Program Files\EAC\flac.exe (User Defined Encoder) 320 kBit/s Additional command line options : -6 -V -T "ARTIST=%a" -T "TITLE=%t" -T "ALBUM=%g" -T "DATE=%y" -T "TRACKNUMBER=%n" -T "GENRE=%m" -T "COMMENT=EAC Flac 1.1.2 -5" %s
Other options : Fill up missing offset samples with silence : Yes Delete leading and trailing silent blocks : No Native Win32 interface for Win NT & 2000
Range status and errorsSelected range Filename D:\Vol. III.flac.wav
Peak level 87.2 % Range quality 99.9 % CRC 89554DC1 Copy OK
No errors occured
End of status report
CD 4
EAC extraction logfile from 11. September 2007, 23:50 for CDSzymanowski / Complete Songs for voice and piano - Vol. IV
Used drive : TSSTcorpCD/DVDW SH-W162L Adapter: 1 ID: 0Read mode : Secure with NO C2, accurate stream, disable cacheRead offset correction : 6Overread into Lead-In and Lead-Out : No
Used output format : C:\Program Files\EAC\flac.exe (User Defined Encoder) 320 kBit/s Additional command line options : -6 -V -T "ARTIST=%a" -T "TITLE=%t" -T "ALBUM=%g" -T "DATE=%y" -T "TRACKNUMBER=%n" -T "GENRE=%m" -T "COMMENT=EAC Flac 1.1.2 -5" %s
Other options : Fill up missing offset samples with silence : Yes Delete leading and trailing silent blocks : No Native Win32 interface for Win NT & 2000
Range status and errorsSelected range Filename D:\Vol. IV.flac.wav
Peak level 97.9 % Range quality 100.0 % CRC 2CD39079 Copy OK
No errors occured
End of status report

Содержание индексной карты (.CUE)

CD 1
REM DISCID A110401AREM COMMENT "ExactAudioCopy v0.95b3"PERFORMER "Szymanowski"TITLE "Complete Songs for voice and piano - Vol. I"FILE "Vol. I.flac" WAVE TRACK 01 AUDIO TITLE "6 Songs, Op. 2 - I. Daleko zostal caly swiat (The world is left far behind)" PERFORMER "Szymanowski" INDEX 01 00:00:00 TRACK 02 AUDIO TITLE "6 Songs, Op. 2 - II. Tys nie umarla (You are not dead)" PERFORMER "Szymanowski" INDEX 00 02:28:02 INDEX 01 02:34:15 TRACK 03 AUDIO TITLE "6 Songs, Op. 2 - III. We mglach (In the mists)" PERFORMER "Szymanowski" INDEX 00 04:19:38 INDEX 01 04:26:35 TRACK 04 AUDIO TITLE "6 Songs, Op. 2 - IV. Czasem,gdy dlugo na pol sennie marze (Sometimes when long I drowsili dream)" PERFORMER "Szymanowski" INDEX 00 06:07:51 INDEX 01 06:14:17 TRACK 05 AUDIO TITLE "6 Songs, Op. 2 - V. Slyszalem ciebie (I heard you)" PERFORMER "Szymanowski" INDEX 00 08:31:26 INDEX 01 08:38:44 TRACK 06 AUDIO TITLE "6 Songs, Op. 2 - VI. Pielgrzym (The pilgrim)" PERFORMER "Szymanowski" INDEX 00 10:58:59 INDEX 01 11:05:47 TRACK 07 AUDIO TITLE "3 Poems by Jan Kasprowicz, Op. 5 - 1. Swiety Boze (Holy God!)" PERFORMER "Szymanowski" INDEX 00 12:56:02 INDEX 01 13:09:47 TRACK 08 AUDIO TITLE "3 Poems by Jan Kasprowicz, Op. 5 - 2. Jestem i placze (I am and I weep)" PERFORMER "Szymanowski" INDEX 00 19:30:02 INDEX 01 19:37:05 TRACK 09 AUDIO TITLE "3 Poems by Jan Kasprowicz, Op. 5 - 3. Moja piesn wieczorna (My evening song)" PERFORMER "Szymanowski" INDEX 00 24:55:42 INDEX 01 25:02:10 TRACK 10 AUDIO TITLE "Labedz (The Swan), Op. 7" PERFORMER "Szymanowski" INDEX 00 30:03:24 INDEX 01 30:14:37 TRACK 11 AUDIO TITLE "4 Songs, Op. 11 - I. Tak jestem smetny (Joyless I am)" PERFORMER "Szymanowski" INDEX 00 33:44:70 INDEX 01 33:48:40 TRACK 12 AUDIO TITLE "4 Songs, Op. 11 - II. W zaczarowanym lesie (In the enchanted forest)" PERFORMER "Szymanowski" INDEX 00 37:02:58 INDEX 01 37:07:30 TRACK 13 AUDIO TITLE "4 Songs, Op. 11 - III. Nade mna leci w szafir morza (Flying over me into the sapphire of the sea)" PERFORMER "Szymanowski" INDEX 00 39:23:12 INDEX 01 39:27:45 TRACK 14 AUDIO TITLE "4 Songs, Op. 11 - IV. Rycz burzo! (Roar, storm!)" PERFORMER "Szymanowski" INDEX 00 41:01:04 INDEX 01 41:07:52 TRACK 15 AUDIO TITLE "Piosenki Zolnierskie - 1. Do dziewczyny (To a girl)" PERFORMER "Szymanowski" INDEX 00 43:31:20 INDEX 01 43:34:68 TRACK 16 AUDIO TITLE "Piosenki Zolnierskie - 2. O zwiedzionym zolnierzu (The outsmarted soldier)" PERFORMER "Szymanowski" INDEX 00 45:32:23 INDEX 01 45:33:17 TRACK 17 AUDIO TITLE "Piosenki Zolnierskie - 3. Wyszywala raz Hanka (Hanka was embroidering)" PERFORMER "Szymanowski" INDEX 00 48:06:26 INDEX 01 48:07:28 TRACK 18 AUDIO TITLE "Idom se siuhaje dolu, spiewajecy (Young highlanders descend, singing)" PERFORMER "Szymanowski" INDEX 00 49:27:09 INDEX 01 49:27:73 TRACK 19 AUDIO TITLE "5 Songs, Op. 13 - I. Stimme im Dunkeln (Voice in the dark)" PERFORMER "Szymanowski" INDEX 00 50:39:60 INDEX 01 50:42:34 TRACK 20 AUDIO TITLE "5 Songs, Op. 13 - II. Christkindleins Wiegenlied (The Christchild's lullaby)" PERFORMER "Szymanowski" INDEX 00 52:56:17 INDEX 01 53:00:06 TRACK 21 AUDIO TITLE "5 Songs, Op. 13 - III. Auf See (At sea)" PERFORMER "Szymanowski" INDEX 00 56:09:40 INDEX 01 56:12:66 TRACK 22 AUDIO TITLE "5 Songs, Op. 13 - IV. Zuleikha (Suleika)" PERFORMER "Szymanowski" INDEX 00 57:59:62 INDEX 01 58:03:46 TRACK 23 AUDIO TITLE "5 Songs, Op. 13 - V. Die schwarze Laute (The black lute)" PERFORMER "Szymanowski" INDEX 00 60:21:39 INDEX 01 60:24:49 TRACK 24 AUDIO TITLE "3 Songs, Op. 32 - 1. Как только Восток (Sunrise)" PERFORMER "Szymanowski" INDEX 00 62:47:70 INDEX 01 62:52:43 TRACK 25 AUDIO TITLE "3 Songs, Op. 32 - 2. Небо без звёзд (Starless sky)" PERFORMER "Szymanowski" INDEX 00 64:45:28 INDEX 01 64:47:68 TRACK 26 AUDIO TITLE "3 Songs, Op. 32 - 3. Осеннее солнце (Autumnal sun)" PERFORMER "Szymanowski" INDEX 00 66:57:35 INDEX 01 67:01:26
CD 2
REM DISCID C80FA41FREM COMMENT "ExactAudioCopy v0.95b3"PERFORMER "Szymanowski"TITLE "Complete Songs for voice and piano - Vol. II"FILE "Vol. II.flac" WAVE TRACK 01 AUDIO TITLE "Bunte Lieder (Colorfull songs), Op. 22 - I. Einsiedel (The hermit)" PERFORMER "Szymanowski" INDEX 01 00:00:00 TRACK 02 AUDIO TITLE "Bunte Lieder (Colorfull songs), Op. 22 - II. Lied des Madchens am Fenster (Song of the girl at the window)" PERFORMER "Szymanowski" INDEX 00 01:59:13 INDEX 01 02:02:02 TRACK 03 AUDIO TITLE "Bunte Lieder (Colorfull songs), Op. 22 - III. An kleine Madchen (For little girl)" PERFORMER "Szymanowski" INDEX 00 04:44:07 INDEX 01 04:47:11 TRACK 04 AUDIO TITLE "Bunte Lieder (Colorfull songs), Op. 22 - IV. Das hat die Sommernacht getan (That is what the summer night did)" PERFORMER "Szymanowski" INDEX 00 07:09:55 INDEX 01 07:13:05 TRACK 05 AUDIO TITLE "Bunte Lieder (Colorfull songs), Op. 22 - V. Bestimmung (Destiny)" PERFORMER "Szymanowski" INDEX 00 09:06:37 INDEX 01 09:12:02 TRACK 06 AUDIO TITLE "Pesni muezina szalonego (Songs of an Infatuated Muezzin), Op. 42 - 1. Allah, Allah Akbar (Allah Akbar)" PERFORMER "Szymanowski" INDEX 00 10:55:40 INDEX 01 11:01:47 TRACK 07 AUDIO TITLE "Pesni muezina szalonego (Songs of an Infatuated Muezzin), Op. 42 - 2. O, ukochana ma! (O my belved!)" PERFORMER "Szymanowski" INDEX 00 13:39:34 INDEX 01 13:41:65 TRACK 08 AUDIO TITLE "Pesni muezina szalonego (Songs of an Infatuated Muezzin), Op. 42 - 3. Ledwie blask slonca (The barely golden sun)" PERFORMER "Szymanowski" INDEX 00 15:35:19 INDEX 01 15:37:50 TRACK 09 AUDIO TITLE "Pesni muezina szalonego (Songs of an Infatuated Muezzin), Op. 42 - 4. W poludnie (At noon)" PERFORMER "Szymanowski" INDEX 00 18:30:07 INDEX 01 18:33:62 TRACK 10 AUDIO TITLE "Pesni muezina szalonego (Songs of an Infatuated Muezzin), Op. 42 - 5. O tej godzinie (At this hour)" PERFORMER "Szymanowski" INDEX 00 20:49:10 INDEX 01 20:51:47 TRACK 11 AUDIO TITLE "Pesni muezina szalonego (Songs of an Infatuated Muezzin), Op. 42 - 6. Odeszlas w pustynie (You departed)" PERFORMER "Szymanowski" INDEX 00 23:45:16 INDEX 01 23:47:39 TRACK 12 AUDIO TITLE "7 Songs by James Joyce, Op. 54 - 1. Gentle lady, do not sing" PERFORMER "Szymanowski" INDEX 00 27:05:37 INDEX 01 27:12:56 TRACK 13 AUDIO TITLE "7 Songs by James Joyce, Op. 54 - 2. Sleep now" PERFORMER "Szymanowski" INDEX 00 28:57:10 INDEX 01 29:01:32 TRACK 14 AUDIO TITLE "7 Songs by James Joyce, Op. 54 - 3. Lean out of the window" PERFORMER "Szymanowski" INDEX 00 30:29:49 INDEX 01 30:33:23 TRACK 15 AUDIO TITLE "7 Songs by James Joyce, Op. 54 - 4. My dove, my beautiful one" PERFORMER "Szymanowski" INDEX 00 31:36:25 INDEX 01 31:40:02 TRACK 16 AUDIO TITLE "7 Songs by James Joyce, Op. 54 - 5. Strings in the earth" PERFORMER "Szymanowski" INDEX 00 33:19:31 INDEX 01 33:23:47 TRACK 17 AUDIO TITLE "7 Songs by James Joyce, Op. 54 - 6. Winds of may" PERFORMER "Szymanowski" INDEX 00 34:39:49 INDEX 01 34:42:05 TRACK 18 AUDIO TITLE "7 Songs by James Joyce, Op. 54 - 7. Rain has fallen" PERFORMER "Szymanowski" INDEX 00 35:47:37 INDEX 01 35:51:62 TRACK 19 AUDIO TITLE "Piesni Kurpiowski (12 Kurpian Songs), Op. 58 - 1. Lecioly zorazie (The cranes where flying)" PERFORMER "Szymanowski" INDEX 00 37:20:43 INDEX 01 37:32:65 TRACK 20 AUDIO TITLE "Piesni Kurpiowski (12 Kurpian Songs), Op. 58 - 2. Wysla burzycka (The storm has come)" PERFORMER "Szymanowski" INDEX 00 39:18:13 INDEX 01 39:21:71 TRACK 21 AUDIO TITLE "Piesni Kurpiowski (12 Kurpian Songs), Op. 58 - 3. Uwoz, mamo (Beware, mother)" PERFORMER "Szymanowski" INDEX 00 41:12:40 INDEX 01 41:17:02 TRACK 22 AUDIO TITLE "Piesni Kurpiowski (12 Kurpian Songs), Op. 58 - 4. U jeziorecka (By the lake)" PERFORMER "Szymanowski" INDEX 00 43:22:61 INDEX 01 43:26:32 TRACK 23 AUDIO TITLE "Piesni Kurpiowski (12 Kurpian Songs), Op. 58 - 5. A pod borem siwe kunie (Grey horses by the forest)" PERFORMER "Szymanowski" INDEX 00 45:47:19 INDEX 01 45:51:35 TRACK 24 AUDIO TITLE "Piesni Kurpiowski (12 Kurpian Songs), Op. 58 - 6. Bzicem kunia (Hurry the horse)" PERFORMER "Szymanowski" INDEX 00 48:23:19 INDEX 01 48:28:05 TRACK 25 AUDIO TITLE "Piesni Kurpiowski (12 Kurpian Songs), Op. 58 - 7. Sciani dumbek (Felled oak)" PERFORMER "Szymanowski" INDEX 00 50:48:43 INDEX 01 50:54:47 TRACK 26 AUDIO TITLE "Piesni Kurpiowski (12 Kurpian Songs), Op. 58 - 8. Lec, glosie, po rosie (Fly, my voice, over the dew)" PERFORMER "Szymanowski" INDEX 00 52:43:01 INDEX 01 52:47:35 TRACK 27 AUDIO TITLE "Piesni Kurpiowski (12 Kurpian Songs), Op. 58 - 9. Zarzyjze, kuniu (Neigh, horse)" PERFORMER "Szymanowski" INDEX 00 54:28:61 INDEX 01 54:32:71 TRACK 28 AUDIO TITLE "Piesni Kurpiowski (12 Kurpian Songs), Op. 58 - 10. Ciamna nocka, ciamna (Dark is the night, dark)" PERFORMER "Szymanowski" INDEX 00 57:38:09 INDEX 01 57:41:29 TRACK 29 AUDIO TITLE "Piesni Kurpiowski (12 Kurpian Songs), Op. 58 - 11. Wysly rybki, wysly (The fish are gone, gone)" PERFORMER "Szymanowski" INDEX 00 59:36:61 INDEX 01 59:40:02 TRACK 30 AUDIO TITLE "Piesni Kurpiowski (12 Kurpian Songs), Op. 58 - 12. Wsyscy przjechali (All the folks have arrived)" PERFORMER "Szymanowski" INDEX 00 61:33:01 INDEX 01 61:36:23 TRACK 31 AUDIO TITLE "Dans les pres fleurs (In the flowering meadous)" PERFORMER "Szymanowski" INDEX 00 64:00:31 INDEX 01 64:07:47
CD 3
REM DISCID 8D0FD11DREM COMMENT "ExactAudioCopy v0.95b3"PERFORMER "Szymanowski"TITLE "Complete Songs for voice and piano - Vol. III"FILE "Vol. III.flac" WAVE TRACK 01 AUDIO TITLE "6 Songs, Op. 20 - 1. Na ksiezycu czarnym (On the black moon)" PERFORMER "Szymanowski" INDEX 00 00:00:00 INDEX 01 00:01:00 TRACK 02 AUDIO TITLE "6 Songs, Op. 20 - 2. Swiety Franciszek mowi (Saint Francis says)" PERFORMER "Szymanowski" INDEX 00 01:49:71 INDEX 01 01:53:31 TRACK 03 AUDIO TITLE "6 Songs, Op. 20 - 3. Pachna mi dziwnie twoje zlote slowy (I can sense the exquisite fragrance of your golden hair)" PERFORMER "Szymanowski" INDEX 00 03:42:55 INDEX 01 03:46:63 TRACK 04 AUDIO TITLE "6 Songs, Op. 20 - 4. W mym sercu (In my heart)" PERFORMER "Szymanowski" INDEX 00 06:53:27 INDEX 01 06:57:50 TRACK 05 AUDIO TITLE "6 Songs, Op. 20 - 5. Z maurytanskich spiewnych sal (From Moorish singing halls)" PERFORMER "Szymanowski" INDEX 00 08:59:37 INDEX 01 09:05:21 TRACK 06 AUDIO TITLE "6 Songs, Op. 20 - 6. Na pustej trzcinie (On a hollow reed)" PERFORMER "Szymanowski" INDEX 00 10:37:60 INDEX 01 10:42:60 TRACK 07 AUDIO TITLE "Love Songs of Hafiz, Op. 24 - I. Wunsche (Wishes)" PERFORMER "Szymanowski" INDEX 00 13:07:63 INDEX 01 13:19:19 TRACK 08 AUDIO TITLE "Love Songs of Hafiz, Op. 24 - II. Die einzige Arzenei (The only medicine)" PERFORMER "Szymanowski" INDEX 00 14:41:56 INDEX 01 14:44:71 TRACK 09 AUDIO TITLE "Love Songs of Hafiz, Op. 24 - III. Die brennenden Tulpen (The burning tulips)" PERFORMER "Szymanowski" INDEX 00 16:26:16 INDEX 01 16:29:41 TRACK 10 AUDIO TITLE "Love Songs of Hafiz, Op. 24 - IV. Tanz (Dance)" PERFORMER "Szymanowski" INDEX 00 18:58:34 INDEX 01 19:02:21 TRACK 11 AUDIO TITLE "Love Songs of Hafiz, Op. 24 - V. Der verliebte Ostwind (The lovesick East wind)" PERFORMER "Szymanowski" INDEX 00 21:05:43 INDEX 01 21:08:72 TRACK 12 AUDIO TITLE "Love Songs of Hafiz, Op. 24 - VI. Trauriger Fruhling (Sad spring)" PERFORMER "Szymanowski" INDEX 00 23:07:60 INDEX 01 23:11:20 TRACK 13 AUDIO TITLE "Das Grab des Hafis (The Grave of Hafis), Op. posth" PERFORMER "Szymanowski" INDEX 00 25:17:37 INDEX 01 25:23:27 TRACK 14 AUDIO TITLE "4 Songs, Op. 41 - 1. Mein Herz (My heart)" PERFORMER "Szymanowski" INDEX 00 30:38:18 INDEX 01 30:46:27 TRACK 15 AUDIO TITLE "4 Songs, Op. 41 - 2. Der junge Prinz (The young prince) I" PERFORMER "Szymanowski" INDEX 00 33:16:20 INDEX 01 33:20:03 TRACK 16 AUDIO TITLE "4 Songs, Op. 41 - 3. Der junge Prinz (The young prince) II" PERFORMER "Szymanowski" INDEX 00 36:23:07 INDEX 01 36:25:41 TRACK 17 AUDIO TITLE "4 Songs, Op. 41 - 4. Das letzte Lied (The last song)" PERFORMER "Szymanowski" INDEX 00 39:22:18 INDEX 01 39:25:65 TRACK 18 AUDIO TITLE "12 Songs, Op. 17 - I. Hoch in der Fruhe (Up light at an early hour)" PERFORMER "Szymanowski" INDEX 00 41:37:44 INDEX 01 41:45:36 TRACK 19 AUDIO TITLE "12 Songs, Op. 17 - II. Gehimnis (A secret)" PERFORMER "Szymanowski" INDEX 00 43:45:33 INDEX 01 43:48:39 TRACK 20 AUDIO TITLE "12 Songs, Op. 17 - III. Werbung (Courtship)" PERFORMER "Szymanowski" INDEX 00 45:31:00 INDEX 01 45:34:11 TRACK 21 AUDIO TITLE "12 Songs, Op. 17 - IV. Manche Nacht (Some night)" PERFORMER "Szymanowski" INDEX 00 47:12:13 INDEX 01 47:15:64 TRACK 22 AUDIO TITLE "12 Songs, Op. 17 - V. Aufblick (Revelation)" PERFORMER "Szymanowski" INDEX 00 49:54:28 INDEX 01 49:58:10 TRACK 23 AUDIO TITLE "12 Songs, Op. 17 - VI. Verkundigung (The annunciation)" PERFORMER "Szymanowski" INDEX 00 53:29:36 INDEX 01 53:33:08 TRACK 24 AUDIO TITLE "12 Songs, Op. 17 - VII. Nach einem Regen (After the rain)" PERFORMER "Szymanowski" INDEX 00 55:26:05 INDEX 01 55:30:65 TRACK 25 AUDIO TITLE "12 Songs, Op. 17 - VIII. Entfuhrung (Abduction)" PERFORMER "Szymanowski" INDEX 00 56:54:63 INDEX 01 56:58:24 TRACK 26 AUDIO TITLE "12 Songs, Op. 17 - IX. Schlummerlied (Slumber song)" PERFORMER "Szymanowski" INDEX 00 59:01:62 INDEX 01 59:04:52 TRACK 27 AUDIO TITLE "12 Songs, Op. 17 - X. Seele (Soul)" PERFORMER "Szymanowski" INDEX 00 60:49:38 INDEX 01 60:53:06 TRACK 28 AUDIO TITLE "12 Songs, Op. 17 - XI. Fragment (aus from Der Gluhende)" PERFORMER "Szymanowski" INDEX 00 62:37:72 INDEX 01 62:40:40 TRACK 29 AUDIO TITLE "12 Songs, Op. 17 - XII. Liebesnacht (Night of love)" PERFORMER "Szymanowski" INDEX 00 64:16:16 INDEX 01 64:19:61
CD 4
REM DISCID 290E1D24REM COMMENT "ExactAudioCopy v0.95b3"PERFORMER "Szymanowski"TITLE "Complete Songs for voice and piano - Vol. IV"FILE "Vol. IV.flac" WAVE TRACK 01 AUDIO TITLE "Songs of a Fairy-Tale Princess, Op. 31 I. Samotny ksiezyc (Lonely moon)" PERFORMER "Szymanowski" INDEX 01 00:00:00 TRACK 02 AUDIO TITLE "Songs of a Fairy-Tale Princess, Op. 31 II. Slowik (The nightingale)" PERFORMER "Szymanowski" INDEX 00 03:56:63 INDEX 01 04:00:60 TRACK 03 AUDIO TITLE "Songs of a Fairy-Tale Princess, Op. 31 III. Zlote trzewiczki (Golden slippe)" PERFORMER "Szymanowski" INDEX 00 06:41:67 INDEX 01 06:43:70 TRACK 04 AUDIO TITLE "Songs of a Fairy-Tale Princess, Op. 31 IV. Taniec (A dance)" PERFORMER "Szymanowski" INDEX 00 09:09:48 INDEX 01 09:12:51 TRACK 05 AUDIO TITLE "Songs of a Fairy-Tale Princess, Op. 31 V. Piesn o fali (The Song of the Wave)" PERFORMER "Szymanowski" INDEX 00 11:15:42 INDEX 01 11:19:19 TRACK 06 AUDIO TITLE "Songs of a Fairy-Tale Princess, Op. 31 VI. Uczta (A feast)" PERFORMER "Szymanowski" INDEX 00 14:34:62 INDEX 01 14:39:14 TRACK 07 AUDIO TITLE "Slopiwenie, Op. 46bis - I. Slowisien (Cherrywords)" PERFORMER "Szymanowski" INDEX 00 17:07:05 INDEX 01 17:16:10 TRACK 08 AUDIO TITLE "Slopiwenie, Op. 46bis - II. Zielone slowa (Green words)" PERFORMER "Szymanowski" INDEX 00 19:05:69 INDEX 01 19:07:74 TRACK 09 AUDIO TITLE "Slopiwenie, Op. 46bis - III. Sw. Franciszek (St. Francis)" PERFORMER "Szymanowski" INDEX 00 20:48:37 INDEX 01 20:51:71 TRACK 10 AUDIO TITLE "Slopiwenie, Op. 46bis - IV. Kalinowe dwory (Red song)" PERFORMER "Szymanowski" INDEX 00 22:44:52 INDEX 01 22:47:42 TRACK 11 AUDIO TITLE "Slopiwenie, Op. 46bis - V. Wanda" PERFORMER "Szymanowski" INDEX 00 23:49:07 INDEX 01 23:51:05 TRACK 12 AUDIO TITLE "Lullabies (Berceuses), Op. 48 - I. Pochyl sie cicho nad kolyska (Bend silently over the cradle)" PERFORMER "Szymanowski" INDEX 00 26:10:08 INDEX 01 26:17:12 TRACK 13 AUDIO TITLE "Lullabies (Berceuses), Op. 48 - II. Spiewam morzu, gwiazdom i tobie (I sing to the sea)" PERFORMER "Szymanowski" INDEX 00 27:50:31 INDEX 01 27:52:32 TRACK 14 AUDIO TITLE "Lullabies (Berceuses), Op. 48 - III. Bialy krag ksiezyca albrzymi (White giant circle of the moon)" PERFORMER "Szymanowski" INDEX 00 29:12:72 INDEX 01 29:16:28 TRACK 15 AUDIO TITLE "Children's Rhymes, Op. 49 - 1. Przed zasnieciem (Before falling asleep)" PERFORMER "Szymanowski" INDEX 00 30:52:06 INDEX 01 30:58:14 TRACK 16 AUDIO TITLE "Children's Rhymes, Op. 49 - 2. Jak sie najlepiej opedzac od szerszenia (How to best get away from a hornet)" PERFORMER "Szymanowski" INDEX 00 32:04:11 INDEX 01 32:05:56 TRACK 17 AUDIO TITLE "Children's Rhymes, Op. 49 - 3. Mieszkanie (Home)" PERFORMER "Szymanowski" INDEX 00 32:58:35 INDEX 01 32:59:66 TRACK 18 AUDIO TITLE "Children's Rhymes, Op. 49 - 4. Prosie (Piglet)" PERFORMER "Szymanowski" INDEX 00 33:49:74 INDEX 01 33:51:27 TRACK 19 AUDIO TITLE "Children's Rhymes, Op. 49 - 5. Gwiazdka (Christmas)" PERFORMER "Szymanowski" INDEX 00 34:41:61 INDEX 01 34:43:14 TRACK 20 AUDIO TITLE "Children's Rhymes, Op. 49 - 6. Slub krolewny (The Princess' wedding)" PERFORMER "Szymanowski" INDEX 00 35:46:65 INDEX 01 35:48:62 TRACK 21 AUDIO TITLE "Children's Rhymes, Op. 49 - 7. Trzmiel i zuk (The bumblebee and the beetle)" PERFORMER "Szymanowski" INDEX 00 37:29:36 INDEX 01 37:31:51 TRACK 22 AUDIO TITLE "Children's Rhymes, Op. 49 - 8. Swieta Krystyna (Saint Krystyna)" PERFORMER "Szymanowski" INDEX 00 38:15:07 INDEX 01 38:17:40 TRACK 23 AUDIO TITLE "Children's Rhymes, Op. 49 - 9. Wiosna (Spring)" PERFORMER "Szymanowski" INDEX 00 39:31:27 INDEX 01 39:32:55 TRACK 24 AUDIO TITLE "Children's Rhymes, Op. 49 - 10. Kilysanka Lalek (The dolls, lullaby)" PERFORMER "Szymanowski" INDEX 00 40:21:71 INDEX 01 40:22:74 TRACK 25 AUDIO TITLE "Children's Rhymes, Op. 49 - 11. Gil i sroka (The bullfinch and the magpie)" PERFORMER "Szymanowski" INDEX 00 41:11:32 INDEX 01 41:12:54 TRACK 26 AUDIO TITLE "Children's Rhymes, Op. 49 - 12. Smutek (The sad one)" PERFORMER "Szymanowski" INDEX 00 41:56:21 INDEX 01 41:57:48 TRACK 27 AUDIO TITLE "Children's Rhymes, Op. 49 - 13 - Wizyta u krowy (A visit at the cow's)" PERFORMER "Szymanowski" INDEX 00 43:12:52 INDEX 01 43:15:09 TRACK 28 AUDIO TITLE "Children's Rhymes, Op. 49 - 14. Kolysanka Krzysi (Krzysia's lullaby)" PERFORMER "Szymanowski" INDEX 00 44:15:15 INDEX 01 44:16:62 TRACK 29 AUDIO TITLE "Children's Rhymes, Op. 49 - 15. Kot (The cat)" PERFORMER "Szymanowski" INDEX 00 45:41:18 INDEX 01 45:43:18 TRACK 30 AUDIO TITLE "Children's Rhymes, Op. 49 - 16. Kolysanka Lalki (Lalka's lullaby)" PERFORMER "Szymanowski" INDEX 00 47:05:29 INDEX 01 47:08:14 TRACK 31 AUDIO TITLE "Children's Rhymes, Op. 49 - 17. Myszy (Mice)" PERFORMER "Szymanowski" INDEX 00 47:55:65 INDEX 01 47:57:16 TRACK 32 AUDIO TITLE "Children's Rhymes, Op. 49 - 18. Zly Lejba (The cheating shopkeeper)" PERFORMER "Szymanowski" INDEX 00 48:44:39 INDEX 01 48:45:17 TRACK 33 AUDIO TITLE "Children's Rhymes, Op. 49 - 19. Kolysanka gniadego konia (The bay-horse's lullaby)" PERFORMER "Szymanowski" INDEX 00 50:59:26 INDEX 01 51:00:51 TRACK 34 AUDIO TITLE "Children's Rhymes, Op. 49 - 20. Nikczemny szpak (The ill-tempered starling)" PERFORMER "Szymanowski" INDEX 00 52:33:34 INDEX 01 52:34:50 TRACK 35 AUDIO TITLE "Vocalise-Etude (Vocalise-Study)" PERFORMER "Szymanowski" INDEX 00 54:26:21 INDEX 01 54:31:00 TRACK 36 AUDIO TITLE "Samotny ksiezyc (Lonely moon), Op.31 nr.1a" PERFORMER "Szymanowski" INDEX 00 57:43:44 INDEX 01 57:49:30
Доп. информация: Камерное вокальное творчество Кароля Шимановского практически неизвестно широкой публике, а между тем это 1/3 от всего не слишком обширного списка его сочинений - около 120 песен, более чем 20 опусов из 65. Словесные источники песен композитора - не только польская поэзия (в том числе таких известных авторов как Тадеуш Мициньский и Юлиан Тувим), но и стихи немецких, русских поэтов, Джеймса Джойса, Рабиндраната Тагора и народные образцы. Таким же многоязычием отличается и музыкальный стиль Шимановского - от произведений, в которых царит экстатическое самообнажение неоромантика, до импрессионизма сочинений 10х годов с изысканностями "французской кухни" и ориентализмом, вплоть до поздних вещей "неофольклорной" направленности, в которых Шимановский постигает простую мудрость народного искусства. Свежесть, тембровая новизна, смысловая многозначность, выразительность, богатство мелодий - лучшие качества песен Шимановского, отразивших дух Польской музыки начала XX-го века. Кроме того, когда слышишь вокальную лирику Шимановского, звучащую очень по-русски, с отголосками наших классиков, то парадоксальным образом приходят на ум Прокофьев или Скрябин (если бы тот писал романсы).
Полное собрание песен Кароля Шимановского на 4х CD исполняют Пётр Бечала (тенор), Юлиана Гондек (сопрано), Ивона Соботка, Урсула Кригер (меццо-сопрано) и Рейнилд Меес (фортепиано). Бокссет удостоен разнообразных премий , как лучшая запись польской музыки в 2004 году.

Список Полного собрания вокальных сочинений Шимановского для голоса с фортепиано

6 песен, соч.2 (1900-1902)
3 поэмы на стихи Яна Каспровича, соч.5 (1902)
Лебедь, песня на стихи Вацлава Берента, соч.7 (1904)
4 песни на стихи Тадеуша Мициньского, соч.11 (1905)
5 песен на стихи немецких поэтов, соч.13 (1905-1907)
12 песен на стихи немецких поэтов, соч.17 (1907)
6 песен на стихи Тадеуша Мициньского, соч.20 (1909)
Цветные песни, соч.22 (1910)
Любовные песни Хафиза, соч.24 (1911)
Песни сказочной Принцессы, соч.31 (1915)
3 Песни на стихи Дениса Давыдова, соч.32 (1915)
4 песни на слова Рабиндраната Тагора, соч.41 (1918)
Песни неистового Муэдзина, соч.42 (1918)
Солдатские песни (1920)
Слопивне (Slopiewnie) 5 песен на стихи Юлиана Тувима, соч.46 (1920)
3 колыбельные песни на стихи Ярослава Ивашкевича, соч.48 (1922)
20 Детских рифм на слова Казимиры Иллакович, соч.49 (1923)
Польские песни (1925-26)
7 песен на слова Джеймса Джойса, соч.54 (1926)
Вокализ-этюд (1928)
12 Курпиовских песен, соч.58 (1930-32)
Кароль Шимановский - Песни с оркестром (Polish Opera Orchestra, Satanowski)



Показать сообщения:    

Текущее время: 10-Дек 23:33

Часовой пояс: UTC + 3


Вы не можете начинать темы
Вы не можете отвечать на сообщения
Вы не можете редактировать свои сообщения
Вы не можете удалять свои сообщения
Вы не можете голосовать в опросах
Вы не можете прикреплять файлы к сообщениям
Вы не можете скачивать файлы