(Classical) Swiss Modern - Ici Ailleurs Suisse Armenie (Komitas, Vassena, Hovhannisyan, Frauchiger, Kelterborn, Voskanian, Gaudibert, Voskanian) - 2004, FLAC (image+.cue) lossless


 

[Цитировать]

Swiss Modern - Ici Ailleurs Suisse Armenie (Komitas, Vassena, Hovhannisyan, Frauchiger, Kelterborn, Voskanian, Gaudibert, Voskanian)
Жанр: Classical
Год издания диска: 2004
Издатель (лейбл): Suisa
Аудиокодек: FLAC
Тип рипа: image+.cue
Битрейт аудио: lossless
Продолжительность: 70’25
Источник: собственный рип
Наличие сканов в содержимом раздачи: да
Треклист:
1. Komitas. Armenian Folk Song - a Capella (2:38)
2. Nadir Vassena. Triptych, Crucifixion (13:10)
3. Aram Hovhannisyan. Litania (8:22)
4. Ktrin Frauchiger. Es Ist Alles Anders (3:15)
5. Komitas. Three Folk Songs - Voice and Piano (6:18)
6. Rudolf Kelterborn. Monolog Einer Judin (7:33)
7. Arzas Voskanian. Three Songs - Voice and Cello (6:42)
8. Eric Gaudibert. Orees (20:39)
9. Arzas Voskanian. Armenian Land - a Capella (1:45)
Исполнители:
Swiss Modern

LOG EAC:

Exact Audio Copy V0.99 prebeta 4 from 23. January 2008
EAC extraction logfile from 19. April 2010, 22:20
Swiss Modern / Ici Ailleurs Suisse Armenie
Used drive : ATAPI DVD A DH20A4P Adapter: 2 ID: 1
Read mode : Secure
Utilize accurate stream : Yes
Defeat audio cache : Yes
Make use of C2 pointers : No
Read offset correction : 6
Overread into Lead-In and Lead-Out : No
Fill up missing offset samples with silence : Yes
Delete leading and trailing silent blocks : No
Null samples used in CRC calculations : Yes
Used interface : Installed external ASPI interface
Used output format : User Defined Encoder
Selected bitrate : 768 kBit/s
Quality : High
Add ID3 tag : No
Command line compressor : C:\Program Files\Exact Audio Copy\Flac\flac.exe
Additional command line options : -6 -V -T "ARTIST=%a" -T "TITLE=%t" -T "ALBUM=%g" -T "DATE=%y" -T "TRACKNUMBER=%n" -T "GENRE=%m" -T "COMMENT=%e" %s -o %d
TOC of the extracted CD
Track | Start | Length | Start sector | End sector
---------------------------------------------------------
1 | 0:00.00 | 2:38.05 | 0 | 11854
2 | 2:38.05 | 13:10.52 | 11855 | 71156
3 | 15:48.57 | 8:22.16 | 71157 | 108822
4 | 24:10.73 | 3:15.10 | 108823 | 123457
5 | 27:26.08 | 6:18.40 | 123458 | 151847
6 | 33:44.48 | 7:33.38 | 151848 | 185860
7 | 41:18.11 | 6:42.01 | 185861 | 216011
8 | 48:00.12 | 20:39.74 | 216012 | 309010
9 | 68:40.11 | 1:45.42 | 309011 | 316927
Range status and errors
Selected range
Filename C:\Program Files\Exact Audio Copy\Flac\Swiss Modern - Ici Ailleurs Suisse Armenie.wav
Peak level 100.0 %
Range quality 100.0 %
Test CRC 2AA87B49
Copy CRC 2AA87B49
Copy OK
No errors occurred
AccurateRip summary
Track 1 not present in database
Track 2 not present in database
Track 3 not present in database
Track 4 not present in database
Track 5 not present in database
Track 6 not present in database
Track 7 not present in database
Track 8 not present in database
Track 9 not present in database
None of the tracks are present in the AccurateRip database
End of status report



Показать сообщения:    

Текущее время: 09-Дек 20:32

Часовой пояс: UTC + 3


Вы не можете начинать темы
Вы не можете отвечать на сообщения
Вы не можете редактировать свои сообщения
Вы не можете удалять свои сообщения
Вы не можете голосовать в опросах
Вы не можете прикреплять файлы к сообщениям
Вы не можете скачивать файлы