(Classical) Anna Moffo - Recital (Donizetti, Gounod, Verdi, Leoncavallo, Charpentier, Puccini, Lehar, Johann Strauss II, Stolz, Herb Brown; Eichhorn, Galatis, Eisbrenner) - 1991, FLAC (tracks+.cue) lossless


 

[Цитировать]

Anna Moffo - Recital
Жанр: Classical
Год издания диска: 1991
Издатель (лейбл): Eurodisc / BMG UK
Номер по каталогу: 69113
Аудиокодек: FLAC
Тип рипа: tracks+.cue
Битрейт аудио: lossless
Продолжительность: 55:00
Источник: собственный рип
Наличие сканов в содержимом раздачи: да
Треклист:
01. Gaetano Donizetti - Linda di Chamounix. Ah Tardai Troppo... O Luce Di Quest' Anima 05:38
02. Шарль Гуно - Romeo et Juliette. Je Veux Vivre Dans Le Reve 03:37
03. Джузеппе Верди - I Lombardi. Qual Prodigio... Non Fu Sogno 03:32
04. La Traviata. E Strano!... Ah Fors'e Lui Che L'anima... Sempre Libera 06:58
05. Ruggero Leoncavallo - I Pagliacci. Qual Fiamma Avea Nel Guardo 04:51
06. Charpentier - Louise. Depuis Le Jour 05:12
07. Giacomo Puccini - Tosca. Vissi D'arte 02:59
08. Suor Angelica. Senza Mamma 04:33
09. Madama Butterfly. Un Bel Di Vedremo 03:56
10. Franz Lehar - Der Zarewitsch. Einer Wird Kommen 03:36
11. Die lustige Witwe. Gar Oft Hab'ich Gehort 02:34
12. Johann Strauss II - Die Fledermaus. Mein Herr Marquis 02:17
13. Der Favorit. Du Sollst Der Kaiswer Meiner Seele Sein 03:31
14. Love Is Where You Find It (The Kissing Bandit) 02:23
Исполнители:
Munich Radio Orchestra (tracks 1-9);
(Hagen) Galatis Orchestra (tracks 10-13);
Berlin Symphony Orchestra (track 14).
Kurt Eichhorn (tracks 1-9);
Hagen Galatis (tracks 10-13);
Werner Eisbrenner (track 14).

LOG EAC:

Exact Audio Copy V1.0 beta 3 from 29. August 2011
EAC extraction logfile from 8. March 2014, 14:03
Anna Moffo / Recital
Used drive : ATAPI iHAS122 C Adapter: 0 ID: 0
Read mode : Secure
Utilize accurate stream : Yes
Defeat audio cache : Yes
Make use of C2 pointers : No
Read offset correction : 6
Overread into Lead-In and Lead-Out : No
Fill up missing offset samples with silence : Yes
Delete leading and trailing silent blocks : No
Null samples used in CRC calculations : Yes
Used interface : Native Win32 interface for Win NT & 2000
Gap handling : Appended to previous track
Used output format : User Defined Encoder
Selected bitrate : 192 kBit/s
Quality : High
Add ID3 tag : No
Command line compressor : C:\Program Files\Exact Audio Copy\Flac\flac.exe
Additional command line options : -V -8 -T "Date=%year%" -T "Genre=%genre%" %source%
TOC of the extracted CD
Track | Start | Length | Start sector | End sector
---------------------------------------------------------
1 | 0:00.00 | 5:38.02 | 0 | 25351
2 | 5:38.02 | 3:37.33 | 25352 | 41659
3 | 9:15.35 | 3:32.20 | 41660 | 57579
4 | 12:47.55 | 6:58.00 | 57580 | 88929
5 | 19:45.55 | 4:50.50 | 88930 | 110729
6 | 24:36.30 | 5:12.27 | 110730 | 134156
7 | 29:48.57 | 2:58.70 | 134157 | 147576
8 | 32:47.52 | 4:32.48 | 147577 | 168024
9 | 37:20.25 | 3:56.32 | 168025 | 185756
10 | 41:16.57 | 3:36.28 | 185757 | 201984
11 | 44:53.10 | 2:34.02 | 201985 | 213536
12 | 47:27.12 | 2:17.33 | 213537 | 223844
13 | 49:44.45 | 3:30.60 | 223845 | 239654
14 | 53:15.30 | 2:22.52 | 239655 | 250356
Track 1
Filename C:\Program Files\Exact Audio Copy\Flac\01 Donizetti - Linda di Chamounix. Ah Tardai Troppo... O Luce Di
Quest' Anima.wav
Pre-gap length 0:00:02.00
Peak level 99.8 %
Extraction speed 2.0 X
Track quality 100.0 %
Test CRC FCB91307
Copy CRC FCB91307
Track not present in AccurateRip database
Copy OK
Track 2
Filename C:\Program Files\Exact Audio Copy\Flac\02 Gounod - Romeo et Juliette. Je Veux Vivre Dans Le Reve.wav
Pre-gap length 0:00:03.00
Peak level 97.7 %
Extraction speed 1.5 X
Track quality 99.9 %
Test CRC FACAD366
Copy CRC FACAD366
Track not present in AccurateRip database
Copy OK
Track 3
Filename C:\Program Files\Exact Audio Copy\Flac\03 Verdi - I Lombardi. Qual Prodigio... Non Fu Sogno.wav
Pre-gap length 0:00:03.00
Peak level 93.8 %
Extraction speed 2.3 X
Track quality 100.0 %
Test CRC E3037103
Copy CRC E3037103
Track not present in AccurateRip database
Copy OK
Track 4
Filename C:\Program Files\Exact Audio Copy\Flac\04 Verdi - La Traviata. E Strano!... Ah Fors'e Lui Che L'anima...
Sempre Libera.wav
Pre-gap length 0:00:03.00
Peak level 95.1 %
Extraction speed 2.2 X
Track quality 99.9 %
Test CRC AB04571D
Copy CRC AB04571D
Track not present in AccurateRip database
Copy OK
Track 5
Filename C:\Program Files\Exact Audio Copy\Flac\05 Leoncavallo - I Pagliacci. Qual Fiamma Avea Nel Guardo.wav
Pre-gap length 0:00:03.00
Peak level 96.4 %
Extraction speed 2.8 X
Track quality 100.0 %
Test CRC 181E3CF4
Copy CRC 181E3CF4
Track not present in AccurateRip database
Copy OK
Track 6
Filename C:\Program Files\Exact Audio Copy\Flac\06 Charpentier - Louise. Depuis Le Jour.wav
Pre-gap length 0:00:03.00
Peak level 85.9 %
Extraction speed 3.1 X
Track quality 100.0 %
Test CRC 02200A9D
Copy CRC 02200A9D
Track not present in AccurateRip database
Copy OK
Track 7
Filename C:\Program Files\Exact Audio Copy\Flac\07 Puccini - Tosca. Vissi D'arte.wav
Pre-gap length 0:00:03.00
Peak level 84.9 %
Extraction speed 2.0 X
Track quality 99.9 %
Test CRC C190C40F
Copy CRC C190C40F
Track not present in AccurateRip database
Copy OK
Track 8
Filename C:\Program Files\Exact Audio Copy\Flac\08 Puccini - Suor Angelica. Senza Mamma.wav
Pre-gap length 0:00:03.00
Peak level 100.0 %
Extraction speed 3.3 X
Track quality 100.0 %
Test CRC 796E930D
Copy CRC 796E930D
Track not present in AccurateRip database
Copy OK
Track 9
Filename C:\Program Files\Exact Audio Copy\Flac\09 Puccini - Madama Butterfly. Un Bel Di Vedremo.wav
Pre-gap length 0:00:03.00
Peak level 94.8 %
Extraction speed 3.3 X
Track quality 100.0 %
Test CRC 950FD9AC
Copy CRC 950FD9AC
Track not present in AccurateRip database
Copy OK
Track 10
Filename C:\Program Files\Exact Audio Copy\Flac\10 Lehar - Der Zarewitsch. Einer Wird Kommen.wav
Pre-gap length 0:00:03.00
Peak level 95.2 %
Extraction speed 3.4 X
Track quality 100.0 %
Test CRC 536E8792
Copy CRC 536E8792
Track not present in AccurateRip database
Copy OK
Track 11
Filename C:\Program Files\Exact Audio Copy\Flac\11 Lehar - Die lustige Witwe. Gar Oft Hab'ich Gehort.wav
Pre-gap length 0:00:03.00
Peak level 98.8 %
Extraction speed 2.1 X
Track quality 99.9 %
Test CRC B345C851
Copy CRC B345C851
Track not present in AccurateRip database
Copy OK
Track 12
Filename C:\Program Files\Exact Audio Copy\Flac\12 Strauss J. - Die Fledermaus. Mein Herr Marquis.wav
Pre-gap length 0:00:03.00
Peak level 97.5 %
Extraction speed 2.1 X
Track quality 99.9 %
Test CRC 9A66C2D2
Copy CRC 9A66C2D2
Track not present in AccurateRip database
Copy OK
Track 13
Filename C:\Program Files\Exact Audio Copy\Flac\13 Der Favorit. Du Sollst Der Kaiswer Meiner Seele Sein.wav
Pre-gap length 0:00:03.00
Peak level 82.8 %
Extraction speed 2.6 X
Track quality 99.9 %
Test CRC 11F76A21
Copy CRC 11F76A21
Track not present in AccurateRip database
Copy OK
Track 14
Filename C:\Program Files\Exact Audio Copy\Flac\14 Love Is Where You Find It (The Kissing Bandit).wav
Pre-gap length 0:00:03.00
Peak level 100.0 %
Extraction speed 3.4 X
Track quality 100.0 %
Test CRC 62FD5F5F
Copy CRC 62FD5F5F
Track not present in AccurateRip database
Copy OK
None of the tracks are present in the AccurateRip database
No errors occurred
End of status report
==== Log checksum 390488712FB8BF53B1F554A47AAA4185E6FBA11905ACAA532B22938D7BB524C5 ====

(.CUE)

REM GENRE Opera
REM DATE 1990
REM DISCID F80D0A0E
REM COMMENT "ExactAudioCopy v1.0b3"
PERFORMER "Anna Moffo"
TITLE "Recital"
FILE "01 Donizetti - Linda di Chamounix. Ah Tardai Troppo... O Luce Di Quest' Anima.wav" WAVE
TRACK 01 AUDIO
TITLE "Donizetti - Linda di Chamounix. Ah Tardai Troppo... O Luce Di Quest' Anima"
PERFORMER "Anna Moffo"
INDEX 01 00:00:00
TRACK 02 AUDIO
TITLE "Gounod - Romeo et Juliette. Je Veux Vivre Dans Le Reve"
PERFORMER "Anna Moffo"
INDEX 00 05:35:02
FILE "02 Gounod - Romeo et Juliette. Je Veux Vivre Dans Le Reve.wav" WAVE
INDEX 01 00:00:00
TRACK 03 AUDIO
TITLE "Verdi - I Lombardi. Qual Prodigio... Non Fu Sogno"
PERFORMER "Anna Moffo"
INDEX 00 03:34:33
FILE "03 Verdi - I Lombardi. Qual Prodigio... Non Fu Sogno.wav" WAVE
INDEX 01 00:00:00
TRACK 04 AUDIO
TITLE "Verdi - La Traviata. E Strano!... Ah Fors'e Lui Che L'anima... Sempre Libera"
PERFORMER "Anna Moffo"
INDEX 00 03:29:20
FILE "04 Verdi - La Traviata. E Strano!... Ah Fors'e Lui Che L'anima... Sempre Libera.wav" WAVE
INDEX 01 00:00:00
TRACK 05 AUDIO
TITLE "Leoncavallo - I Pagliacci. Qual Fiamma Avea Nel Guardo"
PERFORMER "Anna Moffo"
INDEX 00 06:55:00
FILE "05 Leoncavallo - I Pagliacci. Qual Fiamma Avea Nel Guardo.wav" WAVE
INDEX 01 00:00:00
TRACK 06 AUDIO
TITLE "Charpentier - Louise. Depuis Le Jour"
PERFORMER "Anna Moffo"
INDEX 00 04:47:50
FILE "06 Charpentier - Louise. Depuis Le Jour.wav" WAVE
INDEX 01 00:00:00
TRACK 07 AUDIO
TITLE "Puccini - Tosca. Vissi D'arte"
PERFORMER "Anna Moffo"
INDEX 00 05:09:27
FILE "07 Puccini - Tosca. Vissi D'arte.wav" WAVE
INDEX 01 00:00:00
TRACK 08 AUDIO
TITLE "Puccini - Suor Angelica. Senza Mamma"
PERFORMER "Anna Moffo"
INDEX 00 02:55:70
FILE "08 Puccini - Suor Angelica. Senza Mamma.wav" WAVE
INDEX 01 00:00:00
TRACK 09 AUDIO
TITLE "Puccini - Madama Butterfly. Un Bel Di Vedremo"
PERFORMER "Anna Moffo"
INDEX 00 04:29:48
FILE "09 Puccini - Madama Butterfly. Un Bel Di Vedremo.wav" WAVE
INDEX 01 00:00:00
TRACK 10 AUDIO
TITLE "Lehar - Der Zarewitsch. Einer Wird Kommen"
PERFORMER "Anna Moffo"
INDEX 00 03:53:32
FILE "10 Lehar - Der Zarewitsch. Einer Wird Kommen.wav" WAVE
INDEX 01 00:00:00
TRACK 11 AUDIO
TITLE "Lehar - Die lustige Witwe. Gar Oft Hab'ich Gehort"
PERFORMER "Anna Moffo"
INDEX 00 03:33:28
FILE "11 Lehar - Die lustige Witwe. Gar Oft Hab'ich Gehort.wav" WAVE
INDEX 01 00:00:00
TRACK 12 AUDIO
TITLE "Strauss J. - Die Fledermaus. Mein Herr Marquis"
PERFORMER "Anna Moffo"
INDEX 00 02:31:02
FILE "12 Strauss J. - Die Fledermaus. Mein Herr Marquis.wav" WAVE
INDEX 01 00:00:00
TRACK 13 AUDIO
TITLE "Der Favorit. Du Sollst Der Kaiswer Meiner Seele Sein"
PERFORMER "Anna Moffo"
INDEX 00 02:14:33
FILE "13 Der Favorit. Du Sollst Der Kaiswer Meiner Seele Sein.wav" WAVE
INDEX 01 00:00:00
TRACK 14 AUDIO
TITLE "Love Is Where You Find It (The Kissing Bandit)"
PERFORMER "Anna Moffo"
INDEX 00 03:27:60
FILE "14 Love Is Where You Find It (The Kissing Bandit).wav" WAVE
INDEX 01 00:00:00



Показать сообщения:    

Текущее время: 05-Дек 13:28

Часовой пояс: UTC + 3


Вы не можете начинать темы
Вы не можете отвечать на сообщения
Вы не можете редактировать свои сообщения
Вы не можете удалять свои сообщения
Вы не можете голосовать в опросах
Вы не можете прикреплять файлы к сообщениям
Вы не можете скачивать файлы