(Classical/Vocal) Шостакович - Сказка о попе и его работнике Балде * Леди Макбет Мценского уезда, Сюита (Белоселский, Сучков, Баканов, Степанович, Сорокина - русский филармонический оркестр, Зандерлинг \\ Sanderling) - 2006, APE (image+.cue) lossless


 

[Цитировать]

Дмитрий Шостакович - Сказка о попе и его работнике Балде * Леди Макбет Мценского уезда Суите
Жанр: Classical/Vocal
Страна-производитель диска: EU
Год издания диска: 2006
Издатель (лейбл): Deutsche Grammophon
Номер по каталогу: 00289 477 6112
Дата записи: 2005
Аудиокодек: APE
Тип рипа: image+.cue
Битрейт аудио: lossless
Продолжительность: 61'42
Источник: собственный рип
Наличие сканов в содержимом раздачи: да
Треклист:
The Tale of the Priest and His Worker, Balda, Op. 36
1. I. Overture
2. II. A Fair (Prelude)
3. III. A Fair (Continuation)
4. IV. Carousel I
5. V. Balda's March
6. VI. Bell-Ringer's Dance
7. VII. Carousel II
8. VIII. The Bear's Dance
9. IX. Balda's Song
10. X. The Meeting of Balda and the Priest
11. XI. Dialogue of Balda and the Priest
12. XII. Finale of Part One
13. XIII. A Village
14. XIV. Balda's First Job
15. XV. The Metropolitan Priest
16. XVI. Overture to the Evening Party
17. XVII. Lullaby
18. XVIII. The Priest's Daughter's Dream
19. XIX. Waltz
20. XX. Balda's Second Job
21. XXI. The Priest's Dance with the Devil
22. XXII. Dance of the Corpses
23. XXIII. Procession of Obscurantists
24. XXIV. Dialogue of Balda and the Old Devil
25. XXV. First Dialogue of Balda and the Imp
26. XXVI. The Devil's Couplets
27. XXVII. Second Dialogue of Balda and the Imp
28. XXVIII. The Three Knocks
29. XXIX. Balda's Gallop
Symphonic Suite From the Opera 'Lady MacBeth of the Mtsensk District', Op. 29
30. Allegro con brio
31. Presto
32. AllegrettoИсполнители:
Dmitri Beloselsky, bass
Andrej Suchkov, voice
Dmitri Stepanovich, tenor
Fyodor Bakanov, Bass
Sergei Balashov, tenor
Evgeniya Sorokina, soprano
Herman Yukavsky, bass
Dmitri Ulyanov, bass
Irina Narskaya. mezzo-soprano
Russian Filharmonic Orchestra
Thomas Sanderling

Лог создания рипа

Exact Audio Copy V1.0 beta 3 from 29. August 2011
EAC extraction logfile from 17. March 2014, 17:42
Shostakovich / The Tale of the Priest and His Worker, Balda & Suite From Lady MacBeth of the Mtsensk District, Sanderling 2006
Used drive : TSSTcorpCDDVDW SE-208AB Adapter: 1 ID: 0
Read mode : SecureUtilize accurate stream : YesDefeat audio cache : YesMake use of C2 pointers : No
Read offset correction : 6Overread into Lead-In and Lead-Out : NoFill up missing offset samples with silence : YesDelete leading and trailing silent blocks : NoNull samples used in CRC calculations : YesUsed interface : Native Win32 interface for Win NT & 2000
Used output format : Monkey's Audio Lossless EncoderSelected bitrate : High Lossless CompressionQuality : HighAdd ID3 tag : YesCommand line compressor : C:\Program Files (x86)\Monkey's Audio\MAC.exeAdditional command line options : %dest% -t "Artist=%artist%" -t "Title=%title%" -t "Album=%albumtitle%" -t "Year=%year%" -t "Track=%tracknr%" -t "Genre=%genre%" mac.exe %source% %dest% -c3000 -v
TOC of the extracted CD
Track | Start | Length | Start sector | End sector --------------------------------------------------------- 1 | 0:00.00 | 1:23.27 | 0 | 6251 2 | 1:23.27 | 1:51.64 | 6252 | 14640 3 | 3:15.16 | 2:30.31 | 14641 | 25921 4 | 5:45.47 | 1:24.57 | 25922 | 32278 5 | 7:10.29 | 0:53.74 | 32279 | 36327 6 | 8:04.28 | 2:16.08 | 36328 | 46535 7 | 10:20.36 | 2:08.14 | 46536 | 56149 8 | 12:28.50 | 2:55.26 | 56150 | 69300 9 | 15:24.01 | 1:34.42 | 69301 | 76392 10 | 16:58.43 | 1:32.32 | 76393 | 83324 11 | 18:31.00 | 1:14.46 | 83325 | 88920 12 | 19:45.46 | 1:34.74 | 88921 | 96044 13 | 21:20.45 | 2:00.35 | 96045 | 105079 14 | 23:21.05 | 1:31.53 | 105080 | 111957 15 | 24:52.58 | 1:13.04 | 111958 | 117436 16 | 26:05.62 | 1:52.45 | 117437 | 125881 17 | 27:58.32 | 4:24.70 | 125882 | 145751 18 | 32:23.27 | 2:05.73 | 145752 | 155199 19 | 34:29.25 | 3:11.61 | 155200 | 169585 20 | 37:41.11 | 0:53.60 | 169586 | 173620 21 | 38:34.71 | 1:06.03 | 173621 | 178573 22 | 39:40.74 | 2:33.74 | 178574 | 190122 23 | 42:14.73 | 1:05.00 | 190123 | 194997 24 | 43:19.73 | 1:34.32 | 194998 | 202079 25 | 44:54.30 | 3:34.22 | 202080 | 218151 26 | 48:28.52 | 1:18.01 | 218152 | 224002 27 | 49:46.53 | 1:48.64 | 224003 | 232166 28 | 51:35.42 | 1:55.42 | 232167 | 240833 29 | 53:31.09 | 1:31.09 | 240834 | 247667 30 | 55:02.18 | 2:06.30 | 247668 | 257147 31 | 57:08.48 | 2:40.51 | 257148 | 269198 32 | 59:49.24 | 1:53.24 | 269199 | 277697
Range status and errors
Selected range
Filename E:\Foobar-EAC\Shostakovich - The Tale of the Priest and His Worker, Balda & Suite From Lady MacBeth of the Mtsensk District, Sanderling 2006.wav
Peak level 98.5 % Extraction speed 1.9 X Range quality 100.0 % Test CRC F28F9E15 Copy CRC F28F9E15 Copy OK
No errors occurred
AccurateRip summary
Track 1 accurately ripped (confidence 5) [A92925DB] (AR v2)Track 2 accurately ripped (confidence 5) [5BB44647] (AR v2)Track 3 accurately ripped (confidence 5) [D59E1806] (AR v2)Track 4 accurately ripped (confidence 5) [9EA51C6D] (AR v2)Track 5 accurately ripped (confidence 5) [6F979F2B] (AR v2)Track 6 accurately ripped (confidence 5) [D977DC42] (AR v2)Track 7 accurately ripped (confidence 5) [35F5BFC1] (AR v2)Track 8 accurately ripped (confidence 5) [81C9C2FD] (AR v2)Track 9 accurately ripped (confidence 5) [30B82154] (AR v2)Track 10 accurately ripped (confidence 5) [46A04BAB] (AR v2)Track 11 accurately ripped (confidence 5) [1766B258] (AR v2)Track 12 accurately ripped (confidence 5) [4531F55B] (AR v2)Track 13 accurately ripped (confidence 5) [9DEF5927] (AR v2)Track 14 accurately ripped (confidence 5) [DD72CF75] (AR v2)Track 15 accurately ripped (confidence 5) [2050E6A9] (AR v2)Track 16 accurately ripped (confidence 5) [3D9D777C] (AR v2)Track 17 accurately ripped (confidence 5) [E2BD9567] (AR v2)Track 18 accurately ripped (confidence 5) [56044F28] (AR v2)Track 19 accurately ripped (confidence 5) [8FB21E80] (AR v2)Track 20 accurately ripped (confidence 5) [ABC56E76] (AR v2)Track 21 accurately ripped (confidence 5) [D463FC4F] (AR v2)Track 22 accurately ripped (confidence 5) [D3E47E43] (AR v2)Track 23 accurately ripped (confidence 5) [84D01649] (AR v2)Track 24 accurately ripped (confidence 5) [897E169E] (AR v2)Track 25 accurately ripped (confidence 5) [C7F578EF] (AR v2)Track 26 accurately ripped (confidence 5) [EE00E2AB] (AR v2)Track 27 accurately ripped (confidence 5) [1EE3F0EA] (AR v2)Track 28 accurately ripped (confidence 5) [7782AD13] (AR v2)Track 29 accurately ripped (confidence 5) [FBE91238] (AR v2)Track 30 accurately ripped (confidence 5) [CC11D253] (AR v2)Track 31 accurately ripped (confidence 5) [4F63608B] (AR v2)Track 32 accurately ripped (confidence 5) [06738F7F] (AR v2)
All tracks accurately ripped
End of status report
---- CUETools DB Plugin V2.1.3
[CTDB TOCID: W5Xti66fhtI394CZcSuW9.xZiqA-] found, Submit result: W5Xti66fhtI394CZcSuW9.xZiqA- has been confirmed[7c5b2201] (2/2) Accurately ripped
==== Log checksum 2317009CC37BD572D46BF6B210A37C9342DA2CCFD1556027EE3064C86FA9495E ====

Содержание индексной карты (.CUE)

REM GENRE VocalREM DATE 2006REM DISCID B20E7620REM COMMENT "ExactAudioCopy v1.0b3"CATALOG 0028947761129PERFORMER "Shostakovich"TITLE "The Tale of the Priest and His Worker, Balda & Suite From Lady MacBeth of the..."FILE "Shostakovich - The Tale of the Priest and His Worker, Balda & Suite From Lady MacBeth of the Mtsensk District, Sanderling 2006.ape" WAVE TRACK 01 AUDIO TITLE "The Tale of the Priest and His Worker, Balda, Op. 36: I. Overture" PERFORMER "Shostakovich" ISRC DEN960531901 INDEX 01 00:00:00 TRACK 02 AUDIO TITLE "The Tale of the Priest and His Worker, Balda, Op. 36: II. A Fair (Prelude)" PERFORMER "Shostakovich" ISRC DEN960531902 INDEX 01 01:23:27 TRACK 03 AUDIO TITLE "The Tale of the Priest and His Worker, Balda, Op. 36: III. A Fair (Continuation)" PERFORMER "Shostakovich" ISRC DEN960531903 INDEX 01 03:15:16 TRACK 04 AUDIO TITLE "The Tale of the Priest and His Worker, Balda, Op. 36: IV. Carousel I" PERFORMER "Shostakovich" ISRC DEN960531904 INDEX 01 05:45:47 TRACK 05 AUDIO TITLE "The Tale of the Priest and His Worker, Balda, Op. 36: V. Balda's March" PERFORMER "Shostakovich" ISRC DEN960531905 INDEX 01 07:10:29 TRACK 06 AUDIO TITLE "The Tale of the Priest and His Worker, Balda, Op. 36: VI. Bell-Ringer's Dance" PERFORMER "Shostakovich" ISRC DEN960531906 INDEX 01 08:04:28 TRACK 07 AUDIO TITLE "The Tale of the Priest and His Worker, Balda, Op. 36: VII. Carousel II" PERFORMER "Shostakovich" ISRC DEN960531907 INDEX 01 10:20:36 TRACK 08 AUDIO TITLE "The Tale of the Priest and His Worker, Balda, Op. 36: VIII. The Bear's Dance" PERFORMER "Shostakovich" ISRC DEN960531908 INDEX 01 12:28:50 TRACK 09 AUDIO TITLE "The Tale of the Priest and His Worker, Balda, Op. 36: IX. Balda's Song" PERFORMER "Shostakovich" ISRC DEN960531909 INDEX 01 15:24:01 TRACK 10 AUDIO TITLE "The Tale of the Priest and His Worker, Balda, Op. 36: X. The Meeting of Balda..." PERFORMER "Shostakovich" ISRC DEN960531910 INDEX 01 16:58:43 TRACK 11 AUDIO TITLE "The Tale of the Priest and His Worker, Balda, Op. 36: XI. Dialogue of Balda a..." PERFORMER "Shostakovich" ISRC DEN960531911 INDEX 01 18:31:00 TRACK 12 AUDIO TITLE "The Tale of the Priest and His Worker, Balda, Op. 36: XII. Finale of Part One" PERFORMER "Shostakovich" ISRC DEN960531912 INDEX 01 19:45:46 TRACK 13 AUDIO TITLE "The Tale of the Priest and His Worker, Balda, Op. 36: XIII. A Village" PERFORMER "Shostakovich" ISRC DEN960531913 INDEX 00 21:17:68 INDEX 01 21:20:45 TRACK 14 AUDIO TITLE "The Tale of the Priest and His Worker, Balda, Op. 36: XIV. Balda's First Job" PERFORMER "Shostakovich" ISRC DEN960531914 INDEX 01 23:21:05 TRACK 15 AUDIO TITLE "The Tale of the Priest and His Worker, Balda, Op. 36: XV. The Metropolitan Pr..." PERFORMER "Shostakovich" ISRC DEN960531915 INDEX 01 24:52:58 TRACK 16 AUDIO TITLE "The Tale of the Priest and His Worker, Balda, Op. 36: XVI. Overture to the Ev..." PERFORMER "Shostakovich" ISRC DEN960531916 INDEX 01 26:05:62 TRACK 17 AUDIO TITLE "The Tale of the Priest and His Worker, Balda, Op. 36: XVII. Lullaby" PERFORMER "Shostakovich" ISRC DEN960531917 INDEX 01 27:58:32 TRACK 18 AUDIO TITLE "The Tale of the Priest and His Worker, Balda, Op. 36: XVIII. The Priest's Dau..." PERFORMER "Shostakovich" ISRC DEN960531918 INDEX 01 32:23:27 TRACK 19 AUDIO TITLE "The Tale of the Priest and His Worker, Balda, Op. 36: XIX. Waltz" PERFORMER "Shostakovich" ISRC DEN960531919 INDEX 01 34:29:25 TRACK 20 AUDIO TITLE "The Tale of the Priest and His Worker, Balda, Op. 36: XX. Balda's Second Job" PERFORMER "Shostakovich" ISRC DEN960531920 INDEX 01 37:41:11 TRACK 21 AUDIO TITLE "The Tale of the Priest and His Worker, Balda, Op. 36: XXI. The Priest's Dance..." PERFORMER "Shostakovich" ISRC DEN960531921 INDEX 01 38:34:71 TRACK 22 AUDIO TITLE "The Tale of the Priest and His Worker, Balda, Op. 36: XXII. Dance of the Corpses" PERFORMER "Shostakovich" ISRC DEN960531922 INDEX 01 39:40:74 TRACK 23 AUDIO TITLE "The Tale of the Priest and His Worker, Balda, Op. 36: XXIII. Procession of Ob..." PERFORMER "Shostakovich" ISRC DEN960531923 INDEX 01 42:14:73 TRACK 24 AUDIO TITLE "The Tale of the Priest and His Worker, Balda, Op. 36: XXIV. Dialogue of Balda..." PERFORMER "Shostakovich" ISRC DEN960531924 INDEX 01 43:19:73 TRACK 25 AUDIO TITLE "The Tale of the Priest and His Worker, Balda, Op. 36: XXV. First Dialogue of ..." PERFORMER "Shostakovich" ISRC DEN960531925 INDEX 01 44:54:30 TRACK 26 AUDIO TITLE "The Tale of the Priest and His Worker, Balda, Op. 36: XXVI. The Devil's Couplets" PERFORMER "Shostakovich" ISRC DEN960531926 INDEX 01 48:28:52 TRACK 27 AUDIO TITLE "The Tale of the Priest and His Worker, Balda, Op. 36: XXVII. Second Dialogue ..." PERFORMER "Shostakovich" ISRC DEN960531927 INDEX 01 49:46:53 TRACK 28 AUDIO TITLE "The Tale of the Priest and His Worker, Balda, Op. 36: XXVIII. The Three Knocks" PERFORMER "Shostakovich" ISRC DEN960531928 INDEX 01 51:35:42 TRACK 29 AUDIO TITLE "The Tale of the Priest and His Worker, Balda, Op. 36: XXIX. Balda's Gallop" PERFORMER "Shostakovich" ISRC DEN960531929 INDEX 01 53:31:09 TRACK 30 AUDIO TITLE "Symphonic Suite From the Opera 'Lady MacBeth of the Mtsensk District', Op. 29..." PERFORMER "Shostakovich" ISRC DEN960532001 INDEX 00 54:55:55 INDEX 01 55:02:18 TRACK 31 AUDIO TITLE "Symphonic Suite From the Opera 'Lady Macbeth of the Mtsensk District', Op. 29..." PERFORMER "Shostakovich" ISRC DEN960532002 INDEX 00 57:04:27 INDEX 01 57:08:48 TRACK 32 AUDIO TITLE "Symphonic Suite From the Opera 'Lady Macbeth of the Mtsensk District', Op. 29..." PERFORMER "Shostakovich" ISRC DEN960532003 INDEX 00 59:47:45 INDEX 01 59:49:24



Показать сообщения:    

Текущее время: 09-Дек 10:46

Часовой пояс: UTC + 3


Вы не можете начинать темы
Вы не можете отвечать на сообщения
Вы не можете редактировать свои сообщения
Вы не можете удалять свои сообщения
Вы не можете голосовать в опросах
Вы не можете прикреплять файлы к сообщениям
Вы не можете скачивать файлы