(Classical) Marco Beasley - Accordone - Il sogno d'Orfeo (Monteverdi, Purcell, Calestani, Strozzi, Pagano) - 2000, FLAC (image+.cue) lossless


 

[Цитировать]

Marco Beasley - Accordone - Il sogno d'Orfeo
Жанр: Classical
Год издания диска: 2000
Издатель (лейбл): ORF
Номер по каталогу: CD247
Аудиокодек: FLAC
Тип рипа: image+.cue
Битрейт аудио: lossless
Продолжительность: 54’18
Источник: собственный рип
Наличие сканов в содержимом раздачи: да
Треклист:
01. Oscura e profonda era 01:32
02. Monteverdi. Notte, che Nel profondo 03:41
03. L'alba vinceva l'ora mattutina 00:11
04. Purcell. 'Tis Nature's Voice 04:31
05. Calestani. Damigella tutta bella 03:10
06. Quivi sospiri, pianti ed alti guai 00:19
07. Monteverdi. In un fiorito prato 06:19
08. Strozzi. Sino alla morte 03:44
09. La terra lagrimosa diede vento 00:16
10. Improvisation. Animulae vagulae blandulae 09:49
11. Pagano. Bona sera, gefliola 04:01
12. Purcell. Invain the Am'rous Flute 04:31
13. Improvisation. Donat'havea 'l core 07:02
14. Purcell. Musick for a while 05:21
Исполнители:
Marco Beasley - Voce & Percussion
Guido Morini - Cembalo & Orgelpositiv
Rolf Lislevand - Theorbe, Vihuela & Barockgitarre
Eduardo Eguez - Theorbe & Barockgitarre
Paolo Fresu - Trompete & Flugelhorn
Michele Claude - Percussion

LOG EAC:

Exact Audio Copy V1.0 beta 3 from 29. August 2011
EAC extraction logfile from 7. March 2014, 10:24
Accordone / Il sogno d'Orfeo
Used drive : HL-DT-STDVDRAM GH41N Adapter: 1 ID: 0
Read mode : Secure
Utilize accurate stream : Yes
Defeat audio cache : Yes
Make use of C2 pointers : No
Read offset correction : 667
Overread into Lead-In and Lead-Out : No
Fill up missing offset samples with silence : Yes
Delete leading and trailing silent blocks : No
Null samples used in CRC calculations : Yes
Used interface : Installed external ASPI interface
Used output format : User Defined Encoder
Selected bitrate : 192 kBit/s
Quality : High
Add ID3 tag : No
Command line compressor : C:\Program Files\Exact Audio Copy\Flac\flac.exe
Additional command line options : -V -8 -T "Date=%year%" -T "Genre=%genre%" %source%
TOC of the extracted CD
Track | Start | Length | Start sector | End sector
---------------------------------------------------------
1 | 0:00.00 | 1:31.38 | 0 | 6862
2 | 1:31.38 | 3:40.69 | 6863 | 23431
3 | 5:12.32 | 0:10.72 | 23432 | 24253
4 | 5:23.29 | 4:30.40 | 24254 | 44543
5 | 9:53.69 | 3:10.23 | 44544 | 58816
6 | 13:04.17 | 0:19.00 | 58817 | 60241
7 | 13:23.17 | 6:18.53 | 60242 | 88644
8 | 19:41.70 | 3:43.43 | 88645 | 105412
9 | 23:25.38 | 0:15.45 | 105413 | 106582
10 | 23:41.08 | 9:49.21 | 106583 | 150778
11 | 33:30.29 | 4:01.19 | 150779 | 168872
12 | 37:31.48 | 4:31.08 | 168873 | 189205
13 | 42:02.56 | 7:01.64 | 189206 | 220844
14 | 49:04.45 | 5:20.69 | 220845 | 244913
Range status and errors
Selected range
Filename C:\Program Files\Exact Audio Copy\Flac\Accordone - Il sogno d'Orfeo.wav
Peak level 96.6 %
Extraction speed 1.7 X
Range quality 100.0 %
Test CRC 15885517
Copy CRC 15885517
Copy OK
No errors occurred
AccurateRip summary
Track 1 accurately ripped (confidence 3) [8CA11193] (AR v2)
Track 2 accurately ripped (confidence 3) [D342CE63] (AR v2)
Track 3 accurately ripped (confidence 3) [5335064B] (AR v2)
Track 4 accurately ripped (confidence 3) [CF7A2562] (AR v2)
Track 5 accurately ripped (confidence 3) [60814EF0] (AR v2)
Track 6 accurately ripped (confidence 3) [8437EA76] (AR v2)
Track 7 accurately ripped (confidence 3) [44B9B4FA] (AR v2)
Track 8 accurately ripped (confidence 3) [4DF44C25] (AR v2)
Track 9 accurately ripped (confidence 3) [E61692D3] (AR v2)
Track 10 accurately ripped (confidence 3) [C3736081] (AR v2)
Track 11 accurately ripped (confidence 3) [7FD1BF9C] (AR v2)
Track 12 accurately ripped (confidence 3) [D2519A84] (AR v2)
Track 13 accurately ripped (confidence 3) [38C9601C] (AR v2)
Track 14 accurately ripped (confidence 3) [0AB2BC85] (AR v2)
All tracks accurately ripped
End of status report
==== Log checksum 991D6DE6F58E7F50EEC390870AB18A795732D33F477D7703DDB3D4DFCE7BB95E ====



Показать сообщения:    

Текущее время: 03-Дек 16:47

Часовой пояс: UTC + 3


Вы не можете начинать темы
Вы не можете отвечать на сообщения
Вы не можете редактировать свои сообщения
Вы не можете удалять свои сообщения
Вы не можете голосовать в опросах
Вы не можете прикреплять файлы к сообщениям
Вы не можете скачивать файлы