(Classical, Renaissance) Michelangelo Rossi - La poesia cromatica - Huelgas Ensemble, Paul Van Nevel - 2009, FLAC (image+.cue) lossless


 

[Цитировать]

Michelangelo Rossi - La poesia cromatica - Huelgas Ensemble, Paul Van Nevel
Жанр: Classical, Renaissance
Страна-производитель диска: Germany
Год издания диска: 2009
Издатель (лейбл): Deutsche Harmonia Mundi
Дата записи: 2008
Аудиокодек: FLAC
Тип рипа: image+.cue
Битрейт аудио: lossless
Продолжительность: 60:50
Источник: собственный рип
Наличие сканов в содержимом раздачи: да
Треклист:
Michelangelo Rossi (1601-1656)
[1] Per non mi dir ch'io moia
[2] Alma afflitta, che fai?
[3] Ohime, se tanto amante
[4] Partite sopre La Romanesca
[5] Era l'anima mia
[6] O miseria d'amante
[7] Mentre d'ampia voragine tonante
[8] Moribondo mio pianto
[9] Or che la notte
[10] Voi volete ch'io mora
[11] Langue al vostro languir
[12] Come sian dolorose
[13] Toccata Settima
[14] Ah dolente partita
[15] Chieci desir
[16] Occhi, un tempo mia vita
Исполнители:
Huelgas Ensemble
Paul Van Nevel

Лог создания рипа

Exact Audio Copy V1.0 beta 3 from 29. August 2011
EAC extraction logfile from 14. March 2014, 0:45
Huelgas Ensemble, Paul van Nevel / Michelangelo Rossi - La poesia cromatica
Used drive : HL-DT-STDVDRAM GSA-4083N Adapter: 1 ID: 0
Read mode : SecureUtilize accurate stream : YesDefeat audio cache : YesMake use of C2 pointers : No
Read offset correction : 667Overread into Lead-In and Lead-Out : NoFill up missing offset samples with silence : YesDelete leading and trailing silent blocks : NoNull samples used in CRC calculations : YesUsed interface : Native Win32 interface for Win NT & 2000
Used output format : User Defined EncoderSelected bitrate : 896 kBit/sQuality : HighAdd ID3 tag : NoCommand line compressor : C:\Program Files\Exact Audio Copy\Flac\flac.exeAdditional command line options : -V -8 %source%
TOC of the extracted CD
Track | Start | Length | Start sector | End sector --------------------------------------------------------- 1 | 0:00.00 | 4:54.53 | 0 | 22102 2 | 4:54.53 | 2:39.63 | 22103 | 34090 3 | 7:34.41 | 2:44.66 | 34091 | 46456 4 | 10:19.32 | 3:03.56 | 46457 | 60237 5 | 13:23.13 | 2:57.54 | 60238 | 73566 6 | 16:20.67 | 4:23.59 | 73567 | 93350 7 | 20:44.51 | 2:42.14 | 93351 | 105514 8 | 23:26.65 | 3:30.03 | 105515 | 121267 9 | 26:56.68 | 6:28.57 | 121268 | 150424 10 | 33:25.50 | 3:56.25 | 150425 | 168149 11 | 37:22.00 | 3:19.30 | 168150 | 183104 12 | 40:41.30 | 3:20.53 | 183105 | 198157 13 | 44:02.08 | 5:14.66 | 198158 | 221773 14 | 49:16.74 | 2:47.32 | 221774 | 234330 15 | 52:04.31 | 4:47.60 | 234331 | 255915 16 | 56:52.16 | 3:56.21 | 255916 | 273636
Range status and errors
Selected range
Filename J:\New Music\Michelangelo Rossi - La poesia cromatica\Rossi - La poesia cromatica.wav
Peak level 87.7 % Extraction speed 2.7 X Range quality 100.0 % Test CRC EA08472E Copy CRC EA08472E Copy OK
No errors occurred
AccurateRip summary
Track 1 accurately ripped (confidence 4) [935702A9] (AR v2)Track 2 accurately ripped (confidence 4) [259D0209] (AR v2)Track 3 accurately ripped (confidence 4) [37440533] (AR v2)Track 4 accurately ripped (confidence 4) [C4E9CB2B] (AR v2)Track 5 accurately ripped (confidence 4) [32645621] (AR v2)Track 6 accurately ripped (confidence 4) [9ACC0E16] (AR v2)Track 7 accurately ripped (confidence 4) [4F02311C] (AR v2)Track 8 accurately ripped (confidence 4) [B199D5BF] (AR v2)Track 9 accurately ripped (confidence 4) [2D890B55] (AR v2)Track 10 accurately ripped (confidence 4) [CA229E98] (AR v2)Track 11 accurately ripped (confidence 4) [01B52A65] (AR v2)Track 12 accurately ripped (confidence 4) [6346D724] (AR v2)Track 13 accurately ripped (confidence 4) [8ED6D1B4] (AR v2)Track 14 accurately ripped (confidence 4) [349E3881] (AR v2)Track 15 accurately ripped (confidence 4) [A235AB2F] (AR v2)Track 16 accurately ripped (confidence 4) [404B9933] (AR v2)
All tracks accurately ripped
End of status report
==== Log checksum 5E7BC7BABD09435C49072FB25FA688AB107C9DD9C5164C5E422CC8966DC6B8D2 ====



Показать сообщения:    

Текущее время: 06-Дек 20:58

Часовой пояс: UTC + 3


Вы не можете начинать темы
Вы не можете отвечать на сообщения
Вы не можете редактировать свои сообщения
Вы не можете удалять свои сообщения
Вы не можете голосовать в опросах
Вы не можете прикреплять файлы к сообщениям
Вы не можете скачивать файлы