(Classical) Canteloube, Villa-Lobos, Рахманинов - Chants d'Auvergne, Bachianas Brasileiras №5, Vocalise Op.34 (Anna Moffo; American Symphony Orchestra, Leopold Stokowski) - 2011/1964, FLAC (image+.cue) lossless


 

[Цитировать]

Canteloube, Villa-Lobos, Рахманинов -
Chants d'Auvergne, Bachianas Brasileiras №5, Vocalise Op.34
(Anna Moffo; American Symphony Orchestra, Leopold Stokowski)
Жанр: Classical
Страна-производитель диска: Netherland
Год издания диска: 2011
Издатель (лейбл): Newton Classics B.V.
Номер по каталогу: 8802085
Дата записи: 1964 (1996 Digital remastering)
Аудиокодек: FLAC
Тип рипа: image+.cue
Битрейт аудио: lossless
Продолжительность: 0:41:22
Источник: JVA
Наличие сканов в содержимом раздачи: да
Треклист:
Joseph Canteloube (1879-1957)
Chants d'Auvergne
01. L'Antoueno (Vol.2 №.5) (3:14)
02. Pastourelle (Vol.2 №.1) (4:32)
03. L'aio de rotso (Vol.I №.3а) (1:10)
04. Bailero (Chant de bergers de Haute-Auvergne) (Vol.I №.2) (5:19)
05. Passo pel prat (Vol.3 №.2) (3:2S)
06. Malurous qu'o uno fenno (Vol.3 №.5) (1:26)
07. Brezairola (Vol.3 №.3) (3:34)
Heitor Villa-Lobos (1887-1959)
Bachianas Brasileiras №5
08. Aria: Cantilena (7:03)
09. Danza: Martelo (4:33)
Сергей Васильевич Рахманинов (1873-1943)
10. Vocalise Op.34 (7:06)
Исполнители:
Anna Moffo soprano
American Symphony Orchestra / Leopold Stokowski

Лог создания рипа

Exact Audio Copy V0.99 prebeta 5 from 4. May 2009
Отчёт EAC об извлечении, выполненном 28. февраля 2014, 17:53
Stokowski-Moffo / Canteloube-Villa Lobos-Rachmaninoff
Дисковод: _NEC DVD_RW ND-4571A Adapter: 0 ID: 0
Режим чтения : ДостоверностьИспользование точного потока : ДаОтключение кэша аудио : ДаИспользование указателей C2 : Нет
Коррекция смещения при чтении : 48Способность читать области Lead-in и Lead-out : НетЗаполнение пропущенных сэмплов тишиной : ДаУдаление блоков с тишиной в начале и конце : НетПри вычислениях CRC использовались нулевые сэмплы : ДаИнтерфейс : Встроенный Win32-интерфейс для Win NT/2000
Выходной формат : Пользовательский кодировщикВыбранный битрейт : 768 kBit/sКачество : ВысокийДобавление ID3-тэга : НетУтилита сжатия : C:\Program Files\Exact Audio Copy\Flac\flac.exeДополнительные параметры : -6 -V -T "ARTIST=%a" -T "TITLE=%t" -T "ALBUM=%g" -T "DATE=%y" -T "TRACKNUMBER=%n" -T "GENRE=%m" -T "COMMENT=%e" %s -o %d
TOC извлечённого CD
Трек | Старт | Длительность | Начальный сектор | Конечный сектор --------------------------------------------------------------------- 1 | 0:00.32 | 3:16.58 | 32 | 14789 2 | 3:17.15 | 4:35.02 | 14790 | 35416 3 | 7:52.17 | 1:12.25 | 35417 | 40841 4 | 9:04.42 | 5:21.08 | 40842 | 64924 5 | 14:25.50 | 3:28.37 | 64925 | 80561 6 | 17:54.12 | 1:27.10 | 80562 | 87096 7 | 19:21.22 | 3:39.13 | 87097 | 103534 8 | 23:00.35 | 7:05.72 | 103535 | 135481 9 | 30:06.32 | 4:36.18 | 135482 | 156199 10 | 34:42.50 | 7:06.40 | 156200 | 188189
Характеристики диапазона извлечения и сообщения об ошибках
Выбранный диапазон
Имя файла F:\EAC\Stokowski-Moffo - Canteloube-Villa Lobos-Rachmaninof\Stokowski-Moffo.wav
Пиковый уровень 84.3 % Качество диапазона 100.0 % CRC копии D938D172 Копирование... OK
Ошибок не произошло
AccurateRip: сводка
Трек 1 точность не определена (достоверность 3) [C548E3C1], AccurateRip вернул [4F52844D]Трек 2 точность не определена (достоверность 3) [CB48D6AD], AccurateRip вернул [C855A7AF]Трек 3 точность не определена (достоверность 3) [6DB16788], AccurateRip вернул [52B20F35]Трек 4 точность не определена (достоверность 3) [D719BCC1], AccurateRip вернул [EF835B39]Трек 5 точность не определена (достоверность 3) [0AD0DA36], AccurateRip вернул [4328461E]Трек 6 точность не определена (достоверность 3) [111E2C01], AccurateRip вернул [6F2F3657]Трек 7 точность не определена (достоверность 3) [88D8A02E], AccurateRip вернул [58093FB4]Трек 8 точность не определена (достоверность 3) [775CC81D], AccurateRip вернул [D0601CCD]Трек 9 точность не определена (достоверность 3) [2255C858], AccurateRip вернул [79FAF18A]Трек 10 точность не определена (достоверность 3) [0CF637B1], AccurateRip вернул [D867C400]
Ни один трек не прошёл проверки на точностьВ вашей базе может быть иной вариант штамповки диска
Конец отчёта

Лог проверки качества

Скриншот спектра частот




Показать сообщения:    

Текущее время: 08-Дек 17:20

Часовой пояс: UTC + 3


Вы не можете начинать темы
Вы не можете отвечать на сообщения
Вы не можете редактировать свои сообщения
Вы не можете удалять свои сообщения
Вы не можете голосовать в опросах
Вы не можете прикреплять файлы к сообщениям
Вы не можете скачивать файлы