(Classical) Robert & Clara Schumann - Lieder - Barbara Bonney & Vladimir Ashkenazy / Ашкенази - 1997, FLAC (image+.cue) lossless


 

[Цитировать]

Robert & Clara Schumann - Lieder - Barbara Bonney & Vladimir Ashkenazy
Жанр: Classical
Год издания диска: 1997
Издатель (лейбл): Decca
Номер по каталогу: 452898
Аудиокодек: FLAC
Тип рипа: image+.cue
Битрейт аудио: lossless
Продолжительность: 1:11;06
Источник: собственный рип
Наличие сканов в содержимом раздачи: да
Треклист:
1. Robert Schumann R- Widmung op.25 n.1 (2:05)
2. Der Nuftbaum op.25 n.2 (2:47)
3. Die Lotosblume op.25 n.3 (2:09)
4. Lied der Suleika op.25 n.4 (2:32)
5. Schumann C- Er ist gekommen in Sturm und Regen (2:17)
6. Liebst du um Schonheit (2:31)
7. Das Veilchen (1:36)
8. Lorelei (2:08)
9. Mein Stern (1:38)
10. Schumann R- Seit ich ihn gesehen op.42 n.1 (2:26)
11. Er, der Herrlichste von alien op.42 n.2 (3:08)
12. Ich kann's nicht fassen, nicht glauben op.42 n.3 (1:43)
13. Du Ring an meinem Finger op.42 n.4 (2:53)
14. Helft mir, ihr Schwestern op.42 n.5 (1:37)
15. Suffer Freund, du blickest op.42 n.6 (4:54)
16. An meinem Herzen, an meiner Brust op.42 n.7 (1:06)
17. Nun hast du mir den ersten Schmerz getan op.42 n.8 (4:08)
18. Clara Schumann- Ich stand in dunklen Traumen op.13 n.1 (2:03)
19. Sie liebten sich beide op.13 n.2 (1:48)
20. Liebeszauber op.13 n.3 (1:56)
21. Der Mond kommt still gegangen op.13 n.4 (1:51)
22. Ich nab' in deinem Auge op.13 n.5 (2:12)
23. Die stille Lotosblume op.13 n.6 (3:01)
24. Schumann R- Waldesgesprach op.38 n.3 (2:26)
25. Mondnacht op.38 n.5 (3:44)
26. Er ist's, op.79 no.24 (1:22)
27. Sehnsucht, op.51 no.1 (2:11)
28. Mein schoner Stern!, op.101 no.4 (2:59)
29. Mignon, op.79 no.29 (3:55)
Исполнители:
Barbara Bonney, Soprano
Vladimir Ashkenazy, Piano

LOG EAC

Exact Audio Copy V1.0 beta 3 from 29. August 2011
EAC extraction logfile from 18. January 2014, 21:51
Barbara Bonney & Vladimir Ashkenazy / Schumann- Lieder - Barbara Bonney & Vladimir Ashkenazy
Used drive : ATAPI iHAS122 C Adapter: 0 ID: 1
Read mode : SecureUtilize accurate stream : YesDefeat audio cache : YesMake use of C2 pointers : No
Read offset correction : 6Overread into Lead-In and Lead-Out : NoFill up missing offset samples with silence : YesDelete leading and trailing silent blocks : NoNull samples used in CRC calculations : YesUsed interface : Installed external ASPI interface
Used output format : User Defined EncoderSelected bitrate : 192 kBit/sQuality : HighAdd ID3 tag : NoCommand line compressor : C:\Program Files\Exact Audio Copy\Flac\flac.exeAdditional command line options : -V -8 -T "Date=%year%" -T "Genre=%genre%" %source%
TOC of the extracted CD
Track | Start | Length | Start sector | End sector --------------------------------------------------------- 1 | 0:00.32 | 2:06.38 | 32 | 9519 2 | 2:06.70 | 2:48.00 | 9520 | 22119 3 | 4:54.70 | 2:11.00 | 22120 | 31944 4 | 7:05.70 | 2:35.50 | 31945 | 43619 5 | 9:41.45 | 2:16.50 | 43620 | 53869 6 | 11:58.20 | 2:33.00 | 53870 | 65344 7 | 14:31.20 | 1:36.00 | 65345 | 72544 8 | 16:07.20 | 2:08.00 | 72545 | 82144 9 | 18:15.20 | 1:42.00 | 82145 | 89794 10 | 19:57.20 | 2:28.37 | 89795 | 100931 11 | 22:25.57 | 3:09.00 | 100932 | 115106 12 | 25:34.57 | 1:45.00 | 115107 | 122981 13 | 27:19.57 | 2:53.50 | 122982 | 136006 14 | 30:13.32 | 1:40.13 | 136007 | 143519 15 | 31:53.45 | 4:55.00 | 143520 | 165644 16 | 36:48.45 | 1:07.25 | 165645 | 170694 17 | 37:55.70 | 4:11.62 | 170695 | 189581 18 | 42:07.57 | 2:03.38 | 189582 | 198844 19 | 44:11.20 | 1:47.62 | 198845 | 206931 20 | 45:59.07 | 1:57.63 | 206932 | 215769 21 | 47:56.70 | 1:52.37 | 215770 | 224206 22 | 49:49.32 | 2:13.63 | 224207 | 234244 23 | 52:03.20 | 3:05.37 | 234245 | 248156 24 | 55:08.57 | 2:28.13 | 248157 | 259269 25 | 57:36.70 | 3:47.37 | 259270 | 276331 26 | 61:24.32 | 1:24.00 | 276332 | 282631 27 | 62:48.32 | 2:12.25 | 282632 | 292556 28 | 65:00.57 | 3:01.13 | 292557 | 306144 29 | 68:01.70 | 3:54.12 | 306145 | 323706
Range status and errors
Selected range
Filename C:\Program Files\Exact Audio Copy\Flac\Schumann- Lieder - Barbara Bonney & Vladimir Ashkenazy.wav
Peak level 78.4 % Extraction speed 10.2 X Range quality 100.0 % Test CRC C36C5DB0 Copy CRC C36C5DB0 Copy OK
No errors occurred
AccurateRip summary
Track 1 accurately ripped (confidence 2) [D8D98CC9] (AR v1)Track 2 accurately ripped (confidence 2) [6286D529] (AR v2)Track 3 accurately ripped (confidence 2) [A4DEAC70] (AR v2)Track 4 accurately ripped (confidence 2) [F39592D5] (AR v2)Track 5 accurately ripped (confidence 2) [E8C4D846] (AR v2)Track 6 accurately ripped (confidence 2) [B779508A] (AR v2)Track 7 accurately ripped (confidence 2) [AF7B8D54] (AR v2)Track 8 accurately ripped (confidence 2) [B8A037BD] (AR v2)Track 9 accurately ripped (confidence 2) [8756C017] (AR v2)Track 10 accurately ripped (confidence 2) [0E94A619] (AR v2)Track 11 accurately ripped (confidence 2) [9D7F4024] (AR v2)Track 12 accurately ripped (confidence 2) [8524DC76] (AR v2)Track 13 accurately ripped (confidence 2) [E2B250BB] (AR v2)Track 14 accurately ripped (confidence 2) [380AC83E] (AR v2)Track 15 accurately ripped (confidence 2) [D9E84281] (AR v2)Track 16 accurately ripped (confidence 2) [42C4630B] (AR v2)Track 17 accurately ripped (confidence 2) [A7C4D322] (AR v2)Track 18 accurately ripped (confidence 2) [722DF2AE] (AR v2)Track 19 accurately ripped (confidence 2) [CBD4A1EF] (AR v2)Track 20 accurately ripped (confidence 2) [10C25D29] (AR v2)Track 21 accurately ripped (confidence 2) [88E57794] (AR v2)Track 22 accurately ripped (confidence 2) [9653BDB7] (AR v2)Track 23 accurately ripped (confidence 2) [04F7CE35] (AR v2)Track 24 accurately ripped (confidence 2) [C22F3B1D] (AR v2)Track 25 accurately ripped (confidence 2) [8D1155C1] (AR v2)Track 26 accurately ripped (confidence 2) [06D52BAC] (AR v2)Track 27 accurately ripped (confidence 2) [03063A3B] (AR v2)Track 28 accurately ripped (confidence 2) [66A66D49] (AR v2)Track 29 accurately ripped (confidence 2) [21F04267] (AR v2)
All tracks accurately ripped
End of status report
==== Log checksum EBD4FF5219D026147DC087A930940546F6FBA8B8F02D35E52D286E4CC8E08F7F ====
mp3



Показать сообщения:    

Текущее время: 08-Дек 23:08

Часовой пояс: UTC + 3


Вы не можете начинать темы
Вы не можете отвечать на сообщения
Вы не можете редактировать свои сообщения
Вы не можете удалять свои сообщения
Вы не можете голосовать в опросах
Вы не можете прикреплять файлы к сообщениям
Вы не можете скачивать файлы