(Classical) Monteverdi - A voce sola, con Sinfonie (Roberta Invernizzi; Accademia Strumentale Italiana; Alberto Rasi) - 2002, FLAC (image+.cue) lossless


 

[Цитировать]

Claudio Monteverdi - A voce sola, con Sinfonie (Roberta Invernizzi)
Жанр: Classical
Год издания диска: 2002
Издатель (лейбл): Stradivarius
Номер по каталогу: STR 33562
Аудиокодек: FLAC
Тип рипа: image+.cue
Битрейт аудио: lossless
Продолжительность: 60:27
Источник: собственный рип
Наличие сканов в содержимом раздачи: да
Треклист:
1. Cima, Giovanni Paolo (1570- fl.1622) - Sonata a Quattro (4:23)
2. Quel sguardo sdegnosetto (2:13)
3. Guami, Gioseffo (c.1540-1611) - Canzon l detta L'Accorta (3:10)
4. Oime ch'io cado (4:11)
5. Ed e pur dunque vero (6:40)
6. Selma y Salaverde, Bartolomeo de (c.1580-c.1638) - Susana Pasegiata Basso Solo (7:10)
7. Lamento d'Arianna (8:37)
8. Grillo, Giovanni Battista (?-1622) - Canzon VI (3:19)
9. Perche se m'odiavi (2:36)
10. La mia turca (1:50)
11. Picchi, Giovanni (fl.1600-1625) - Ballo Ongaro (1:58)
12. Maledetto sia l'aspetto (1:11)
13. Picchi, Giovanni (fl.1600-1625) - Todescha (1:17)
14. Eri gia tutta mia (2:35)
15. Marini, Biagio (c.1587-1663) - Passacalio a 4 (5:27)
16. Si dolce e 'l tormento (3:50)
Исполнители:
Roberta Invernizzi - soprano
Accademia Strumentale Italiana
Alberto Rasi

LOG EAC

Exact Audio Copy V1.0 beta 3 from 29. August 2011
EAC extraction logfile from 21. January 2014, 0:18
Roberta Invernizzi / Monteverdi - A voce sola, con Sinfonie
Used drive : ATAPI iHAS122 C Adapter: 0 ID: 2
Read mode : SecureUtilize accurate stream : YesDefeat audio cache : YesMake use of C2 pointers : No
Read offset correction : 6Overread into Lead-In and Lead-Out : NoFill up missing offset samples with silence : YesDelete leading and trailing silent blocks : NoNull samples used in CRC calculations : YesUsed interface : Installed external ASPI interface
Used output format : User Defined EncoderSelected bitrate : 192 kBit/sQuality : HighAdd ID3 tag : NoCommand line compressor : C:\Program Files\Exact Audio Copy\Flac\flac.exeAdditional command line options : -V -8 -T "Date=%year%" -T "Genre=%genre%" %source%
TOC of the extracted CD
Track | Start | Length | Start sector | End sector --------------------------------------------------------- 1 | 0:00.00 | 4:23.42 | 0 | 19766 2 | 4:23.42 | 2:13.38 | 19767 | 29779 3 | 6:37.05 | 3:10.27 | 29780 | 44056 4 | 9:47.32 | 4:11.50 | 44057 | 62931 5 | 13:59.07 | 6:40.70 | 62932 | 93001 6 | 20:40.02 | 7:10.20 | 93002 | 125271 7 | 27:50.22 | 8:37.30 | 125272 | 164076 8 | 36:27.52 | 3:19.53 | 164077 | 179054 9 | 39:47.30 | 2:36.55 | 179055 | 190809 10 | 42:24.10 | 1:50.25 | 190810 | 199084 11 | 44:14.35 | 1:58.15 | 199085 | 207949 12 | 46:12.50 | 1:11.72 | 207950 | 213346 13 | 47:24.47 | 1:17.25 | 213347 | 219146 14 | 48:41.72 | 2:35.20 | 219147 | 230791 15 | 51:17.17 | 5:27.68 | 230792 | 255384 16 | 56:45.10 | 3:50.17 | 255385 | 272651
Range status and errors
Selected range
Filename C:\Program Files\Exact Audio Copy\Flac\Monteverdi - A voce sola, con Sinfonie (Roberta Invernizzi).wav
Peak level 82.3 % Extraction speed 9.6 X Range quality 100.0 % Test CRC C6B5E989 Copy CRC C6B5E989 Copy OK
No errors occurred
AccurateRip summary
Track 1 accurately ripped (confidence 1) [81EF0E11] (AR v2)Track 2 accurately ripped (confidence 1) [570E23D9] (AR v2)Track 3 accurately ripped (confidence 1) [BB923D6F] (AR v2)Track 4 accurately ripped (confidence 1) [567EB3F5] (AR v2)Track 5 accurately ripped (confidence 1) [7645EB8E] (AR v2)Track 6 accurately ripped (confidence 1) [F6A8CF88] (AR v2)Track 7 accurately ripped (confidence 1) [25E1FF4A] (AR v2)Track 8 accurately ripped (confidence 1) [45FD1049] (AR v2)Track 9 accurately ripped (confidence 1) [34816640] (AR v2)Track 10 accurately ripped (confidence 1) [83EECA93] (AR v2)Track 11 accurately ripped (confidence 1) [F35F189C] (AR v2)Track 12 accurately ripped (confidence 1) [635A7F7F] (AR v2)Track 13 accurately ripped (confidence 1) [BE1D4908] (AR v2)Track 14 accurately ripped (confidence 1) [3D91E8A1] (AR v2)Track 15 accurately ripped (confidence 1) [6900BB6B] (AR v2)Track 16 accurately ripped (confidence 1) [59C234B9] (AR v2)
All tracks accurately ripped
End of status report
==== Log checksum 3F451F421047C883DBD2E2C8FCCACE7EF4714D51F7E650B45DF52F0CFB54751F ====
“This well constructed programme intersperses some of Monteverdi's best known solo vocal pieces with contemporary works for viola da gamba consort and keyboard, expertly and lovingly played by Alberto Rasi and his colleagues”
mp3



Показать сообщения:    

Текущее время: 10-Дек 11:57

Часовой пояс: UTC + 3


Вы не можете начинать темы
Вы не можете отвечать на сообщения
Вы не можете редактировать свои сообщения
Вы не можете удалять свои сообщения
Вы не можете голосовать в опросах
Вы не можете прикреплять файлы к сообщениям
Вы не можете скачивать файлы