(Classical) Monteverdi - Madrigali guerrieri et amorosi (Miroslav Venhoda, Prague Madrigal Singers) - 1997, FLAC (image+.cue) lossless


 

[Цитировать]

Monteverdi - Madrigali guerrieri et amorosi (Miroslav Venhoda, Prague Madrigal Singers)
Жанр: Classical
Год издания диска: 1997
Издатель (лейбл): Supraphon a.s.
Номер по каталогу: SU 3294-2 211
Аудиокодек: FLAC
Тип рипа: image+.cue
Битрейт аудио: lossless
Продолжительность: 45:55
Источник: собственный рип
Наличие сканов в содержимом раздачи: да
Треклист:
1. (1) Sinfonia-Altri canti d'Amor (I) (4:41)
2. Altri canti d'Amor (II) (3:50)
3. (2) Hor che'l ciel e la terra (3:33)
4. (3) Cosi sol d'una chiara fonte (2:45)
5. (4) Gira il nemico insidioso (5:07)
6. (5) Ardo avvampo (3:41)
7. (6) Altria canti di Marte (3:27)
8. (7) Due belli occhi (3:20)
9. (8) Non havea Febo, ancora (0:52)
10. Amor (2:40)
11. Non partir ritrosetta (4:11)
12. (9) Docissimo uscignolo (3:42)
13. (10) Vago augeletto (4:00)
Исполнители:
Vocal - Jitka Cechova, Milada Jirglova, Jaroslav Tomanek, Vratislav Vinicky, Josef Zivota, Richard Novak
Prague Madrigal Singers
Miroslav Venhoda

LOG EAC

Exact Audio Copy V1.0 beta 3 from 29. August 2011
EAC extraction logfile from 26. January 2014, 11:09
Prague Madrigal Singers / Monteverdi- Madrigali guerrieri et amorosi
Used drive : ATAPI iHAS122 C Adapter: 0 ID: 1
Read mode : SecureUtilize accurate stream : YesDefeat audio cache : YesMake use of C2 pointers : No
Read offset correction : 6Overread into Lead-In and Lead-Out : NoFill up missing offset samples with silence : YesDelete leading and trailing silent blocks : NoNull samples used in CRC calculations : YesUsed interface : Installed external ASPI interface
Used output format : User Defined EncoderSelected bitrate : 192 kBit/sQuality : HighAdd ID3 tag : NoCommand line compressor : C:\Program Files\Exact Audio Copy\Flac\flac.exeAdditional command line options : -V -8 -T "Date=%year%" -T "Genre=%genre%" %source%
TOC of the extracted CD
Track | Start | Length | Start sector | End sector --------------------------------------------------------- 1 | 0:00.32 | 4:41.43 | 32 | 21149 2 | 4:42.00 | 3:50.37 | 21150 | 38436 3 | 8:32.37 | 3:33.30 | 38437 | 54441 4 | 12:05.67 | 2:45.48 | 54442 | 66864 5 | 14:51.40 | 5:07.17 | 66865 | 89906 6 | 19:58.57 | 3:41.00 | 89907 | 106481 7 | 23:39.57 | 3:27.50 | 106482 | 122056 8 | 27:07.32 | 3:20.40 | 122057 | 137096 9 | 30:27.72 | 0:52.58 | 137097 | 141054 10 | 31:20.55 | 2:40.22 | 141055 | 153076 11 | 34:01.02 | 4:11.73 | 153077 | 171974 12 | 38:13.00 | 3:42.60 | 171975 | 188684 13 | 41:55.60 | 4:00.47 | 188685 | 206731
Range status and errors
Selected range
Filename C:\Program Files\Exact Audio Copy\Flac\Monteverdi C. - Madrigali guerrieri et amorosi.wav
Peak level 90.2 % Extraction speed 8.4 X Range quality 100.0 % Test CRC D851F7DA Copy CRC D851F7DA Copy OK
No errors occurred
AccurateRip summary
Track 1 not present in databaseTrack 2 not present in databaseTrack 3 not present in databaseTrack 4 not present in databaseTrack 5 not present in databaseTrack 6 not present in databaseTrack 7 not present in databaseTrack 8 not present in databaseTrack 9 not present in databaseTrack 10 not present in databaseTrack 11 not present in databaseTrack 12 not present in databaseTrack 13 not present in database
None of the tracks are present in the AccurateRip database
End of status report
==== Log checksum CE11620852F06511B30C46BBF75CBA9D9E24B8D1EA5FE1CAC70C727F79BA6D86 ====
mp3



Показать сообщения:    

Текущее время: 08-Дек 01:18

Часовой пояс: UTC + 3


Вы не можете начинать темы
Вы не можете отвечать на сообщения
Вы не можете редактировать свои сообщения
Вы не можете удалять свои сообщения
Вы не можете голосовать в опросах
Вы не можете прикреплять файлы к сообщениям
Вы не можете скачивать файлы