(Vocal) Кабалевский - 10 сонетов Шекспира | Романсы русских композиторов: Свиридов • Рахманинов • Метнер • Рубинштейн • Малашкин • Шереметьев • Даргомыжский (Odekhiren Amaize | David Korevaar) - 2001, FLAC (image+.cue) lossless


 

[Цитировать]

TEN SHAKESPEARE SONNETS
and other Russian Romances
-
-
-
-
- Жанр: Vocal
Страна-производитель диска: Canada
Год издания диска: 2001
Издатель (лейбл): Musicians Showcase
Дата записи: 2000
Аудиокодек: FLAC
Тип рипа: image+.cue
Битрейт аудио: lossless
Продолжительность: 74'49''
Источник: собственный рип
Наличие сканов в содержимом раздачи: да
Треклист:
Михаил Глинка
[1] Я помню чудное мгновенье
Георгий Свиридов
[2] Роняет лес багряный свой убор
[3] Всю землю тьмой заволокло
[4] Как яблочко румян
Сергей Рахманинов
[5] Оброчник
Александр Даргомыжский
[6] Старый капрал
Александр Шереметьев
[7] Я вас любил
Леонид Малашкин
[8] О, если б мог выразить в звуке
Николай Метнер
[9] Ангел
[10] Шёпот, робкое дыханье
Дмитрий Кабалевский - 10 сонетов Шекспира:
[11] I. Тебе ль меня придётся хоронить (Сонет №81)
[12] II. Трудами изнурён, хочу уснуть (Сонет №7)
[13] III. Люблю, но реже говорю об этом (Сонет №102)
[14] IV. Когда на суд безмолвных, тайных дум (Сонет №30)
[15] V. Бог Купидон дремал в тиши лесной (Сонет №153)
[16] VI. Не изменяйся, будь самим собой (Сонет №13)
[17] VII. Ты - музыка (Сонет №8)
[18] VIII. Ты погрусти, когда умрёт поэт (Сонет №71)
[19] IX. Уж если ты разлюбишь (Сонет №90)
[20] X. Увы, мой стих не блещет новизной (Сонет №76)
Антон Рубинштейн
[21] Клубится волной
[22] Ночь
[23] Баллада
[24] Как Солнце небесам
[25] Весел создатель Солнцу
Исполнители:
Odekhiren Amaize - bass-baritone
David Korevaar - piano
-

Лог создания рипа

Exact Audio Copy V1.0 beta 3 from 29. August 2011
EAC extraction logfile from 1. May 2013, 0:55
Odekhiren Amaize, Davod Korevaar / Ten Shakespeare Sonnets and other Russian Romances
Used drive : COMPAQ CD-ROM LTN403 Adapter: 0 ID: 0
Read mode : SecureUtilize accurate stream : YesDefeat audio cache : YesMake use of C2 pointers : No
Read offset correction : -1164Overread into Lead-In and Lead-Out : YesFill up missing offset samples with silence : YesDelete leading and trailing silent blocks : NoNull samples used in CRC calculations : YesUsed interface : Native Win32 interface for Win NT & 2000
Used output format : User Defined EncoderSelected bitrate : 128 kBit/sQuality : HighAdd ID3 tag : NoCommand line compressor : C:\Program Files\FLAC\flac.exeAdditional command line options : -T "COMMENT=rip by el coronel, rutracker.org" -8 -V %source%
TOC of the extracted CD
Track | Start | Length | Start sector | End sector --------------------------------------------------------- 1 | 0:00.00 | 3:33.72 | 0 | 16046 2 | 3:33.72 | 3:12.13 | 16047 | 30459 3 | 6:46.10 | 4:37.66 | 30460 | 51300 4 | 11:24.01 | 4:01.65 | 51301 | 69440 5 | 15:25.66 | 4:10.55 | 69441 | 88245 6 | 19:36.46 | 4:34.73 | 88246 | 108868 7 | 24:11.44 | 3:23.08 | 108869 | 124101 8 | 27:34.52 | 2:41.74 | 124102 | 136250 9 | 30:16.51 | 3:30.10 | 136251 | 152010 10 | 33:46.61 | 1:17.44 | 152011 | 157829 11 | 35:04.30 | 2:56.55 | 157830 | 171084 12 | 38:01.10 | 2:02.29 | 171085 | 180263 13 | 40:03.39 | 1:57.44 | 180264 | 189082 14 | 42:01.08 | 2:46.13 | 189083 | 201545 15 | 44:47.21 | 1:51.21 | 201546 | 209891 16 | 46:38.42 | 2:13.05 | 209892 | 219871 17 | 48:51.47 | 2:33.74 | 219872 | 231420 18 | 51:25.46 | 2:04.26 | 231421 | 240746 19 | 53:29.72 | 1:45.15 | 240747 | 248636 20 | 55:15.12 | 2:32.59 | 248637 | 260095 21 | 57:47.71 | 4:15.06 | 260096 | 279226 22 | 62:03.02 | 2:42.51 | 279227 | 291427 23 | 64:45.53 | 3:38.28 | 291428 | 307805 24 | 68:24.06 | 3:26.44 | 307806 | 323299 25 | 71:50.50 | 2:58.31 | 323300 | 336680
Range status and errors
Selected range
Filename C:\Documents and Settings\User.X-TEAM\Мои документы\Odekhiren Amaize - Ten Shakespeare Sonnets and other Russian Romances.wav
Peak level 99.9 % Extraction speed 2.9 X Range quality 99.9 % Test CRC F145F727 Copy CRC F145F727 Copy OK
No errors occurred
AccurateRip summary
Track 1 not present in databaseTrack 2 not present in databaseTrack 3 not present in databaseTrack 4 not present in databaseTrack 5 not present in databaseTrack 6 not present in databaseTrack 7 not present in databaseTrack 8 not present in databaseTrack 9 not present in databaseTrack 10 not present in databaseTrack 11 not present in databaseTrack 12 not present in databaseTrack 13 not present in databaseTrack 14 not present in databaseTrack 15 not present in databaseTrack 16 not present in databaseTrack 17 not present in databaseTrack 18 not present in databaseTrack 19 not present in databaseTrack 20 not present in databaseTrack 21 not present in databaseTrack 22 not present in databaseTrack 23 not present in databaseTrack 24 not present in databaseTrack 25 not present in database
None of the tracks are present in the AccurateRip database
End of status report
==== Log checksum 6158973CF661A0F8C1DF6D090238A6AD918B2D97006026FCDFE759AF1BF826A3 ====

Содержание индексной карты (.CUE)

REM GENRE VocalREM DATE 2001REM DISCID 6B118919REM COMMENT "ExactAudioCopy v1.0b3"PERFORMER "Odekhiren Amaize, Davod Korevaar"TITLE "Ten Shakespeare Sonnets and other Russian Romances"FILE "Odekhiren Amaize - Ten Shakespeare Sonnets and other Russian Romances.flac" WAVE TRACK 01 AUDIO TITLE "M.Glinka - Ya pomnu chudnoye mgnovenje..." PERFORMER "Odekhiren Amaize, Davod Korevaar" INDEX 01 00:00:00 TRACK 02 AUDIO TITLE "G.Sviridov - Ronyaet les bagrany svoy ubor" PERFORMER "Odekhiren Amaize, Davod Korevaar" INDEX 01 03:33:72 TRACK 03 AUDIO TITLE "G.Sviridov - Vsyu zemlyu t'moy zavoloklo" PERFORMER "Odekhiren Amaize, Davod Korevaar" INDEX 01 06:46:10 TRACK 04 AUDIO TITLE "G.Sviridov - Kak yablochko rumyan" PERFORMER "Odekhiren Amaize, Davod Korevaar" INDEX 01 11:24:01 TRACK 05 AUDIO TITLE "S.Rachmaninov - Obrochnik" PERFORMER "Odekhiren Amaize, Davod Korevaar" INDEX 01 15:25:66 TRACK 06 AUDIO TITLE "A.Dargomyzhsky - Stary kapral" PERFORMER "Odekhiren Amaize, Davod Korevaar" INDEX 01 19:36:46 TRACK 07 AUDIO TITLE "A.Sheremetyev - Ya vas lybil" PERFORMER "Odekhiren Amaize, Davod Korevaar" INDEX 01 24:11:44 TRACK 08 AUDIO TITLE "L.Malashkin - O, yesli b mog vyrazit v zvuke" PERFORMER "Odekhiren Amaize, Davod Korevaar" INDEX 01 27:34:52 TRACK 09 AUDIO TITLE "N.Mednter - Angel" PERFORMER "Odekhiren Amaize, Davod Korevaar" INDEX 01 30:16:51 TRACK 10 AUDIO TITLE "N.Medtner - Shopot, robkoye dykhanye" PERFORMER "Odekhiren Amaize, Davod Korevaar" INDEX 01 33:46:61 TRACK 11 AUDIO TITLE "D.Kabalevsky - 10 Shakespeare Sonnets: I. Tebe l' menya pridyotsya khoronit' ..." PERFORMER "Odekhiren Amaize, Davod Korevaar" INDEX 01 35:04:30 TRACK 12 AUDIO TITLE "II. Trudami izhnuryon, hochu usnut' (Sonnet No.27)" PERFORMER "Odekhiren Amaize, Davod Korevaar" INDEX 01 38:01:10 TRACK 13 AUDIO TITLE "III. Lublu, no rezhe govoryu ob etom (Sonnet No.102)" PERFORMER "Odekhiren Amaize, Davod Korevaar" INDEX 01 40:03:39 TRACK 14 AUDIO TITLE "IV. Kogda na sud bezmolvnyh, taynyk dum (Sonnet No.30)" PERFORMER "Odekhiren Amaize, Davod Korevaar" INDEX 01 42:01:08 TRACK 15 AUDIO TITLE "V. Bog kupidon dremal v tishi lesnoi (Sonnet No.153)" PERFORMER "Odekhiren Amaize, Davod Korevaar" INDEX 01 44:47:21 TRACK 16 AUDIO TITLE "VI. Ne izmenyaisya, bud' samim soboy (Sonnet No.13)" PERFORMER "Odekhiren Amaize, Davod Korevaar" INDEX 01 46:38:42 TRACK 17 AUDIO TITLE "VII. Ty - Muzyka (Sonnet No.8)" PERFORMER "Odekhiren Amaize, Davod Korevaar" INDEX 01 48:51:47 TRACK 18 AUDIO TITLE "VIII. Ty pogrusty, kogda umryot poet... (Sonnet No.71)" PERFORMER "Odekhiren Amaize, Davod Korevaar" INDEX 01 51:25:46 TRACK 19 AUDIO TITLE "IX. Uzh ywsli ty razlyubish... (Sonnet No.90)" PERFORMER "Odekhiren Amaize, Davod Korevaar" INDEX 01 53:29:72 TRACK 20 AUDIO TITLE "X. Uvy, moy stih ne bleschet noviznoy (Sonnet No.76)" PERFORMER "Odekhiren Amaize, Davod Korevaar" INDEX 01 55:15:12 TRACK 21 AUDIO TITLE "A.Rubinstein - Klubitsya volnoy" PERFORMER "Odekhiren Amaize, Davod Korevaar" INDEX 01 57:47:71 TRACK 22 AUDIO TITLE "A.Rubinstein - Noch'" PERFORMER "Odekhiren Amaize, Davod Korevaar" INDEX 01 62:03:02 TRACK 23 AUDIO TITLE "A.Rubinstein - Ballad" PERFORMER "Odekhiren Amaize, Davod Korevaar" INDEX 01 64:45:53 TRACK 24 AUDIO TITLE "A.Rubinstein - Kak solnce nebesam" PERFORMER "Odekhiren Amaize, Davod Korevaar" INDEX 01 68:24:06 TRACK 25 AUDIO TITLE "A.Rubinstein - Velel sozsatel solncu" PERFORMER "Odekhiren Amaize, Davod Korevaar" INDEX 01 71:50:50
-Доп. информация: Очень красивое исполнение русских романсов... было бы, если б не акцент исполнителя. Впрочем, мешает получать удовольствие совсем немного.



Показать сообщения:    

Текущее время: 10-Дек 02:17

Часовой пояс: UTC + 3


Вы не можете начинать темы
Вы не можете отвечать на сообщения
Вы не можете редактировать свои сообщения
Вы не можете удалять свои сообщения
Вы не можете голосовать в опросах
Вы не можете прикреплять файлы к сообщениям
Вы не можете скачивать файлы