(Classical) Reynaldo Hahn - Hyperion French Song Edition (The London Schubert Chorale, Stephen Layton; Lott, Varcoe, Bickley, Bostridge, Gould, Johnson) - 1998, FLAC (image+.cue) lossless


 

[Цитировать]

Reynaldo Hahn - Hyperion French Song Edition
Жанр: Classical
Год издания диска: 1996
Издатель (лейбл): Hyperion
Номер по каталогу: CDA67141/2
Аудиокодек: FLAC
Тип рипа: image+.cue
Битрейт аудио: lossless
Продолжительность: CD1`62:31; CD1`71:12
Источник: собственный рип
Наличие сканов в содержимом раздачи: да
Исполнители:
Dame Felicity Lott (soprano) (CD1`1,3,6,9,11,13,17,21,23; CD2`4,19,21,22,23,25)
Stephen Varcoe (baritone) (CD1`2,5,8,10,12,16,19,22,26; CD2`2,5,7,9,12,15,16,17,24)
Susan Bickley (mezzo-soprano) (CD1`4,7,14,18,24; CD2`1,3,6,18,20,24)
Ian Bostridge (tenor) (CD2`8,10,13,14)
Chris Gould (piano) (CD2`16)
Graham Johnson (piano)
The London Schubert Chorale, Stephen Layton (conductor) (CD1`15,20,25; CD2`8,11,16)

Треклист:

CD 1:
1. Si mes vers avaient des ailes (2:21)
2. Paysage (2:24)
3. Reverie (2:37)
4. Offrande (2:49)
5. Mai (2:01)
6. Infidelite (2:17)
7. Seule (2:18)
8. Les Cygnes (4:08)
9. Nocturne (1:28)
10. Trois jours de vendange (3:07)
11. D'une prison (2:45)
12. Seraphine (2:21)
13. L'heure exquise (2:34)
14. Fetes galantes (1:55)
15. Douze Rondels- Le Jour (3:46)
16. Je me metz en vostre mercy (1:31)
17. Le Printemps (1:40)
18. L'Air (3:23)
19. La Paix (2:14)
20. Gardez le trait de la fenetre (1:42)
21. La Peche (2:03)
22. Quand je fus pris au pavillon (1:19)
23. Les Etoiles (3:03)
24. L'Automne (1:56)
25. La Nuit (2:45)
26. Le souvenir d'avoir chante (2:04)
CD 2
1. Quand la nuit n'est pas etoilee (3:45)
2. Le plus beau present (2:15)
3. Sur l'eau (3:21)
4. Le rossignol des lilas (2:01)
5. A Chloris (2:43)
6. Ma jeunesse (2:45)
7. Puisque j'ai mis ma levre (4:37)
8. Etudes Latinrs- Lydie (2:22)
9. Neere (3:28)
10. Salinum (2:12)
11. Thaliarque (2:38)
12. Lyde (3:09)
13. Vile potabis (1:43)
14. Tyndaris (1:43)
15. Pholoe (1:35)
16. Phydyle (2:34)
17. Phyllis (2:52)
18. La Nymphe de la Source (3:18)
19. Au rossignol (2:10)
20. Je me souviens (4:08)
21. Air de la lettre, from Mozart (2:40)
22. C'est tres vilain d'etre infidele, from 'O mon bel inconnu' (2:57)
23. C'est sa banlieue (Y a des arbres), from 'Ciboulette' (3:00)
24. Nous avons fait un beau voyage, from 'Ciboulette' (2:58)
25. La Derniere Valse, from 'Une Revue' (4:18)

LOG EAC

CD 1

Exact Audio Copy V1.0 beta 3 from 29. August 2011
EAC extraction logfile from 20. February 2014, 20:43
Reynaldo Hahn / Hyperion French Song Edition - CD 1
Used drive : ATAPI iHAS122 C Adapter: 0 ID: 0
Read mode : Secure
Utilize accurate stream : Yes
Defeat audio cache : Yes
Make use of C2 pointers : No
Read offset correction : 6
Overread into Lead-In and Lead-Out : No
Fill up missing offset samples with silence : Yes
Delete leading and trailing silent blocks : No
Null samples used in CRC calculations : Yes
Used interface : Installed external ASPI interface
Used output format : User Defined Encoder
Selected bitrate : 192 kBit/s
Quality : High
Add ID3 tag : No
Command line compressor : C:\Program Files\Exact Audio Copy\Flac\flac.exe
Additional command line options : -V -8 -T "Date=%year%" -T "Genre=%genre%" %source%
TOC of the extracted CD
Track | Start | Length | Start sector | End sector
---------------------------------------------------------
1 | 0:00.25 | 2:21.37 | 25 | 10636
2 | 2:21.62 | 2:24.00 | 10637 | 21436
3 | 4:45.62 | 2:37.55 | 21437 | 33266
4 | 7:23.42 | 2:49.00 | 33267 | 45941
5 | 10:12.42 | 2:01.33 | 45942 | 55049
6 | 12:14.00 | 2:17.05 | 55050 | 65329
7 | 14:31.05 | 2:18.17 | 65330 | 75696
8 | 16:49.22 | 4:08.15 | 75697 | 94311
9 | 20:57.37 | 1:28.13 | 94312 | 100924
10 | 22:25.50 | 3:07.50 | 100925 | 114999
11 | 25:33.25 | 2:45.37 | 115000 | 127411
12 | 28:18.62 | 2:21.10 | 127412 | 137996
13 | 30:39.72 | 2:34.08 | 137997 | 149554
14 | 33:14.05 | 1:55.55 | 149555 | 158234
15 | 35:09.60 | 3:46.22 | 158235 | 175206
16 | 38:56.07 | 1:31.23 | 175207 | 182054
17 | 40:27.30 | 1:40.25 | 182055 | 189579
18 | 42:07.55 | 3:23.40 | 189580 | 204844
19 | 45:31.20 | 2:14.47 | 204845 | 214941
20 | 47:45.67 | 1:42.18 | 214942 | 222609
21 | 49:28.10 | 2:03.00 | 222610 | 231834
22 | 51:31.10 | 1:19.07 | 231835 | 237766
23 | 52:50.17 | 3:03.35 | 237767 | 251526
24 | 55:53.52 | 1:56.25 | 251527 | 260251
25 | 57:50.02 | 2:45.25 | 260252 | 272651
26 | 60:35.27 | 2:04.25 | 272652 | 281976
Range status and errors
Selected range
Filename C:\Program Files\Exact Audio Copy\Flac\Hahn - Hyperion French Song Edition - CD 1.wav
Peak level 96.0 %
Extraction speed 10.0 X
Range quality 100.0 %
Test CRC E78E3795
Copy CRC E78E3795
Copy OK
No errors occurred
AccurateRip summary
Track 1 accurately ripped (confidence 3) [3593DE3C] (AR v2)
Track 2 accurately ripped (confidence 3) [9662F1EC] (AR v2)
Track 3 accurately ripped (confidence 3) [DB46994B] (AR v2)
Track 4 accurately ripped (confidence 3) [002F90D0] (AR v2)
Track 5 accurately ripped (confidence 3) [7A29B430] (AR v2)
Track 6 accurately ripped (confidence 3) [62B48113] (AR v2)
Track 7 accurately ripped (confidence 3) [5A9DF7F7] (AR v2)
Track 8 accurately ripped (confidence 3) [78472530] (AR v2)
Track 9 accurately ripped (confidence 3) [EEBF42F6] (AR v2)
Track 10 accurately ripped (confidence 3) [58E9C386] (AR v2)
Track 11 accurately ripped (confidence 3) [F68530DA] (AR v2)
Track 12 accurately ripped (confidence 3) [3B28A4BF] (AR v2)
Track 13 accurately ripped (confidence 3) [ED74E251] (AR v2)
Track 14 accurately ripped (confidence 3) [F34C757D] (AR v2)
Track 15 accurately ripped (confidence 3) [6581A317] (AR v2)
Track 16 accurately ripped (confidence 3) [739DD290] (AR v2)
Track 17 accurately ripped (confidence 3) [49E12C42] (AR v2)
Track 18 accurately ripped (confidence 3) [341715B0] (AR v2)
Track 19 accurately ripped (confidence 3) [4ACA42F7] (AR v2)
Track 20 accurately ripped (confidence 3) [F754BF2F] (AR v2)
Track 21 accurately ripped (confidence 3) [2D3943F0] (AR v2)
Track 22 accurately ripped (confidence 3) [C0046DBC] (AR v2)
Track 23 accurately ripped (confidence 3) [35DB4909] (AR v2)
Track 24 accurately ripped (confidence 3) [D7EED5AF] (AR v2)
Track 25 accurately ripped (confidence 3) [D42DC9E3] (AR v2)
Track 26 accurately ripped (confidence 3) [19BF879F] (AR v2)
All tracks accurately ripped
End of status report
==== Log checksum B36DD66455F92EBEB7BEE923AEC46AE7E47A54021FBD2684F6DD4478D265092C ====

CD 2

Exact Audio Copy V1.0 beta 3 from 29. August 2011
EAC extraction logfile from 20. February 2014, 21:00
Reynaldo Hahn / Hyperion French Song Edition - CD 2
Used drive : ATAPI iHAS122 C Adapter: 0 ID: 0
Read mode : Secure
Utilize accurate stream : Yes
Defeat audio cache : Yes
Make use of C2 pointers : No
Read offset correction : 6
Overread into Lead-In and Lead-Out : No
Fill up missing offset samples with silence : Yes
Delete leading and trailing silent blocks : No
Null samples used in CRC calculations : Yes
Used interface : Installed external ASPI interface
Used output format : User Defined Encoder
Selected bitrate : 192 kBit/s
Quality : High
Add ID3 tag : No
Command line compressor : C:\Program Files\Exact Audio Copy\Flac\flac.exe
Additional command line options : -V -8 -T "Date=%year%" -T "Genre=%genre%" %source%
TOC of the extracted CD
Track | Start | Length | Start sector | End sector
---------------------------------------------------------
1 | 0:00.02 | 3:45.08 | 2 | 16884
2 | 3:45.10 | 2:15.07 | 16885 | 27016
3 | 6:00.17 | 3:21.10 | 27017 | 42101
4 | 9:21.27 | 2:01.20 | 42102 | 51196
5 | 11:22.47 | 2:43.68 | 51197 | 63489
6 | 14:06.40 | 2:45.40 | 63490 | 75904
7 | 16:52.05 | 4:37.42 | 75905 | 96721
8 | 21:29.47 | 2:22.60 | 96722 | 107431
9 | 23:52.32 | 3:28.00 | 107432 | 123031
10 | 27:20.32 | 2:12.03 | 123032 | 132934
11 | 29:32.35 | 2:38.12 | 132935 | 144796
12 | 32:10.47 | 3:09.18 | 144797 | 158989
13 | 35:19.65 | 1:43.15 | 158990 | 166729
14 | 37:03.05 | 1:43.32 | 166730 | 174486
15 | 38:46.37 | 1:35.20 | 174487 | 181631
16 | 40:21.57 | 2:34.73 | 181632 | 193254
17 | 42:56.55 | 2:52.42 | 193255 | 206196
18 | 45:49.22 | 3:18.10 | 206197 | 221056
19 | 49:07.32 | 2:10.25 | 221057 | 230831
20 | 51:17.57 | 4:08.00 | 230832 | 249431
21 | 55:25.57 | 2:40.33 | 249432 | 261464
22 | 58:06.15 | 2:57.67 | 261465 | 274806
23 | 61:04.07 | 3:00.30 | 274807 | 288336
24 | 64:04.37 | 2:58.08 | 288337 | 301694
25 | 67:02.45 | 4:18.02 | 301695 | 321046
Range status and errors
Selected range
Filename C:\Program Files\Exact Audio Copy\Flac\Hahn - Hyperion French Song Edition - CD 2.wav
Peak level 93.4 %
Extraction speed 10.0 X
Range quality 100.0 %
Test CRC C5E40F22
Copy CRC C5E40F22
Copy OK
No errors occurred
AccurateRip summary
Track 1 accurately ripped (confidence 2) [3F2A4867] (AR v1)
Track 2 accurately ripped (confidence 2) [DB7F7C50] (AR v1)
Track 3 accurately ripped (confidence 2) [27362D04] (AR v1)
Track 4 accurately ripped (confidence 2) [4D797F39] (AR v1)
Track 5 accurately ripped (confidence 2) [930DF6DE] (AR v1)
Track 6 accurately ripped (confidence 2) [9661F1A2] (AR v1)
Track 7 accurately ripped (confidence 2) [CA1BB042] (AR v1)
Track 8 accurately ripped (confidence 2) [582FF830] (AR v1)
Track 9 accurately ripped (confidence 2) [504955AF] (AR v1)
Track 10 accurately ripped (confidence 2) [D3E5F580] (AR v1)
Track 11 accurately ripped (confidence 2) [13C24EDA] (AR v1)
Track 12 accurately ripped (confidence 2) [64279C79] (AR v1)
Track 13 accurately ripped (confidence 2) [83794677] (AR v1)
Track 14 accurately ripped (confidence 2) [FB0B4F0B] (AR v1)
Track 15 accurately ripped (confidence 2) [404406EE] (AR v1)
Track 16 accurately ripped (confidence 2) [AAC5AA95] (AR v1)
Track 17 accurately ripped (confidence 2) [B0466682] (AR v1)
Track 18 accurately ripped (confidence 2) [02626E7C] (AR v1)
Track 19 accurately ripped (confidence 2) [B0110BC9] (AR v1)
Track 20 accurately ripped (confidence 2) [27288ACE] (AR v1)
Track 21 accurately ripped (confidence 2) [08ECFA99] (AR v1)
Track 22 accurately ripped (confidence 2) [30284042] (AR v1)
Track 23 accurately ripped (confidence 2) [1AFF695C] (AR v1)
Track 24 accurately ripped (confidence 2) [A9C3F381] (AR v1)
Track 25 accurately ripped (confidence 2) [5E487DB3] (AR v1)
All tracks accurately ripped
End of status report
==== Log checksum 6541F1DC6C21EB27896C13F969EB35680FDDFE9ED9164B56B9255710D86D165D ====



Показать сообщения:    

Текущее время: 11-Дек 07:09

Часовой пояс: UTC + 3


Вы не можете начинать темы
Вы не можете отвечать на сообщения
Вы не можете редактировать свои сообщения
Вы не можете удалять свои сообщения
Вы не можете голосовать в опросах
Вы не можете прикреплять файлы к сообщениям
Вы не можете скачивать файлы