(Classical) Pergolesi - Stabat Mater, Laudate pueri Dominum, Confitebor tibi Domine (Diego Fasolis, Julia Lezhneva, Philippe Jaroussky, Coro della Radiotelevisione svizzera, Lugano) - 2013, FLAC (image+.cue) lossless


 

[Цитировать]

Giovanni Battista Pergolesi - Stabat Mater, Laudate pueri Dominum, Confitebor tibi Domine (Diego Fasolis, Julia Lezhneva, Philippe Jaroussky, Coro della Radiotelevisione svizzera, Lugano)
Жанр: Classical
Год издания диска: 2013
Издатель (лейбл): Erato
Номер по каталогу: 50999 319147 2 7
Аудиокодек: FLAC
Тип рипа: image+.cue
Битрейт аудио: lossless
Продолжительность: 71’00
Источник: собственный рип
Наличие сканов в содержимом раздачи: да
Треклист:
01. Stabat Mater: I. Stabat Mater dolorosa
02. II. Cujus animan gementem
03. III. O quam tristis et afflicta
04. IV. Quae morebat et dolebat
05. V. Quis est homo qui non fleret
06. VI. Vidit suum dulcem natum
07. VII. Eja Mater, fons amoris
08. VIII. Fac ut ardeat cor meum
09. IX. Sancta Mater, istud agas
10. X. Fac ut portem Christi mortem
11. XI. Inflammatus et accensus
12. XII. Quando corpus morietur
13. Laudate pueri Dominum: I. Laudate pueri Dominum
14. II. A solis ortu usque ad occasum
15. III. Excelsus super omnes gentes Dominus
16. IV. Quis sicut Dominus Deux noster
17. V. Suscitans a terra inopem
18. VI. Gloria Patri
19. VII. Sicut erat in principio
20. Confitebor tibi Domine: I. Confitebor tibi Domine
21. II. Confessio et magnifecentia opus ejus
22. III. Fidelia omnia mandata ejus
23. IV. Redemptionem misit Dominus populo suo
24. V. Sanctum et terribile momen ejus
25. VI. Gloria Patri
26. VII. Sicut erat in principio
Исполнители:
Julia Lezhneva, soprano
Philippe Jaroussky, countertenor
Coro della Radiotelevisione svizzera, Lugano
I Barocchisti
Diego Fasolis, direction

LOG EAC

Exact Audio Copy V1.0 beta 3 from 29. August 2011
EAC extraction logfile from 24. January 2014, 11:41
Diego Fasolis, Julia Lezhneva, Philippe Jaroussky / Pergolesi - Stabat Mater
Used drive : PIONEER DVD-RW DVR-218L Adapter: 0 ID: 1
Read mode : SecureUtilize accurate stream : YesDefeat audio cache : YesMake use of C2 pointers : No
Read offset correction : 6Overread into Lead-In and Lead-Out : NoFill up missing offset samples with silence : YesDelete leading and trailing silent blocks : NoNull samples used in CRC calculations : YesUsed interface : Native Win32 interface for Win NT & 2000
Used output format : User Defined EncoderSelected bitrate : 128 kBit/sQuality : HighAdd ID3 tag : NoCommand line compressor : C:\Program Files\Exact Audio Copy\Flac\flac.exeAdditional command line options : -V -8 -T "Date=%year%" -T "Genre=%genre%" %source%
TOC of the extracted CD
Track | Start | Length | Start sector | End sector --------------------------------------------------------- 1 | 0:00.00 | 4:29.27 | 0 | 20201 2 | 4:29.27 | 2:07.65 | 20202 | 29791 3 | 6:37.17 | 1:58.11 | 29792 | 38652 4 | 8:35.28 | 2:04.49 | 38653 | 48001 5 | 10:40.02 | 2:57.15 | 48002 | 61291 6 | 13:37.17 | 3:03.32 | 61292 | 75048 7 | 16:40.49 | 2:26.55 | 75049 | 86053 8 | 19:07.29 | 2:06.01 | 86054 | 95504 9 | 21:13.30 | 5:00.27 | 95505 | 118031 10 | 26:13.57 | 3:40.18 | 118032 | 134549 11 | 29:54.00 | 1:51.43 | 134550 | 142917 12 | 31:45.43 | 4:27.03 | 142918 | 162945 13 | 36:12.46 | 3:03.37 | 162946 | 176707 14 | 39:16.08 | 3:25.40 | 176708 | 192122 15 | 42:41.48 | 1:47.56 | 192123 | 200203 16 | 44:29.29 | 2:08.33 | 200204 | 209836 17 | 46:37.62 | 2:15.40 | 209837 | 220001 18 | 48:53.27 | 3:09.23 | 220002 | 234199 19 | 52:02.50 | 2:18.74 | 234200 | 244623 20 | 54:21.49 | 2:05.55 | 244624 | 254053 21 | 56:27.29 | 3:50.01 | 254054 | 271304 22 | 60:17.30 | 1:53.62 | 271305 | 279841 23 | 62:11.17 | 1:00.08 | 279842 | 284349 24 | 63:11.25 | 3:52.04 | 284350 | 301753 25 | 67:03.29 | 1:07.48 | 301754 | 306826 26 | 68:11.02 | 2:47.01 | 306827 | 319352
Range status and errors
Selected range
Filename C:\Pergolesi - Stabat Mater.wav
Peak level 99.9 % Extraction speed 2.1 X Range quality 100.0 % Test CRC B08BFB72 Copy CRC B08BFB72 Copy OK
No errors occurred
End of status report
==== Log checksum 970C0FD214943AEFE860F2C08F0694F238F1AAB602F403E6426B9E24F486ED89 ====
Доп. информация:
«Stabat Mater» [ста́бат ма́тэр] — католическая секвенция на латинском языке, автором которой считается итальянский поэт XIII века Якопоне да Тоди. Своё название текст получил по инципиту «Stabat Mater dolorosa» («Стояла мать скорбящая»). Первая его часть повествует о страданиях Девы Марии во время распятия Иисуса Христа; вторая представляет собой страстную мольбу грешника о даровании ему рая после смерти.
mp3



Показать сообщения:    

Текущее время: 11-Дек 09:08

Часовой пояс: UTC + 3


Вы не можете начинать темы
Вы не можете отвечать на сообщения
Вы не можете редактировать свои сообщения
Вы не можете удалять свои сообщения
Вы не можете голосовать в опросах
Вы не можете прикреплять файлы к сообщениям
Вы не можете скачивать файлы