(Vocal) Natalie Dessay - Mozart concert arias - 1995, FLAC (tracks+.cue) lossless


 

[Цитировать]

Natalie Dessay - Wolfgang Amadeus Mozart concert arias
Жанр: Vocal
Страна-производитель диска: EU
Год издания диска: 1995
Издатель (лейбл): EMI
Дата записи: 1995
Аудиокодек: FLAC
Тип рипа: tracks+.cue
Битрейт аудио: lossless
Продолжительность: 63'44"
Источник: собственный рип
Наличие сканов в содержимом раздачи: нет
Треклист:
1. Ah Se In Ciel, Benigne Stelle K538
2. Vorrei Spiegarvi, Oh Dio! K418
3. No, Che Non Sei Capace K419
4. Se Tutti I Mali Miei K419
5. Popoli Di Tessaglia!...Io Non Chiedo, Eterni Dei K316
6. Mia Speranza Adorata!...Ah Non Sai Qual Pena Sia K416
7. Alcandro, Lo Confesso...Non So Donde Viene K294
8. Ma Che Vi Fece, O Stelle...Sperai Vicino Il Lido K368
Исполнители:
Natalie Dessay
Orchestre de l'Opera National de Lyon
Theodore Guschlbauer

Лог создания рипа

Natalie Dessay - Mozart, Airs de concert.log

Exact Audio Copy V1.0 beta 3 from 29. August 2011
EAC extraction logfile from 26. July 2013, 18:29
Natalie Dessay / Mozart, Airs de concert
Used drive : Optiarc DVD RW AD-7561S Adapter: 1 ID: 0
Read mode : Secure
Utilize accurate stream : Yes
Defeat audio cache : Yes
Make use of C2 pointers : No
Read offset correction : 6
Overread into Lead-In and Lead-Out : No
Fill up missing offset samples with silence : Yes
Delete leading and trailing silent blocks : No
Null samples used in CRC calculations : Yes
Used interface : Native Win32 interface for Win NT & 2000
Gap handling : Appended to previous track
Used output format : User Defined Encoder
Selected bitrate : 768 kBit/s
Quality : High
Add ID3 tag : No
Command line compressor : C:\Program Files\Exact Audio Copy\FLAC\FLAC.EXE
Additional command line options : -V -8 -T "Genre=%genre%" -T "Artist=%artist%" -T "Title=%title%" -T "Album=%albumtitle%" -T "Date=%year%" -T "Tracknumber=%tracknr%" -T "Comment=%comment%" %source%
TOC of the extracted CD
Track | Start | Length | Start sector | End sector
---------------------------------------------------------
1 | 0:00.00 | 7:23.57 | 0 | 33281
2 | 7:23.57 | 7:13.03 | 33282 | 65759
3 | 14:36.60 | 4:33.57 | 65760 | 86291
4 | 19:10.42 | 7:03.45 | 86292 | 118061
5 | 26:14.12 | 11:01.15 | 118062 | 167651
6 | 37:15.27 | 8:54.25 | 167652 | 207726
7 | 46:09.52 | 9:00.05 | 207727 | 248231
8 | 55:09.57 | 8:34.43 | 248232 | 286824
Track 1
Filename D:\Temp\Natalie Dessay - Mozart concert arias\01. ''Ah se in ciel, benigne stelle'', KV 538 (1788) - Text- Pietro Metastaso.wav
Pre-gap length 0:00:02.00
Peak level 89.6 %
Extraction speed 1.3 X
Track quality 100.0 %
Test CRC E53D5D7C
Copy CRC E53D5D7C
Cannot be verified as accurate (confidence 8) [277BE26C], AccurateRip returned [3BE98038] (AR v2)
Copy OK
Track 2
Filename D:\Temp\Natalie Dessay - Mozart concert arias\02. ''Vorrei spiegarvi, oh Dio!'', KV 418 (1783).wav
Pre-gap length 0:00:03.25
Peak level 84.2 %
Extraction speed 1.5 X
Track quality 100.0 %
Test CRC D4A1F7F2
Copy CRC D4A1F7F2
Cannot be verified as accurate (confidence 8) [D3ADC4F9], AccurateRip returned [D5ACB250] (AR v2)
Copy OK
Track 3
Filename D:\Temp\Natalie Dessay - Mozart concert arias\03. ''No, che non sei capace'', KV 419 (1783).wav
Pre-gap length 0:00:03.65
Peak level 86.3 %
Extraction speed 1.6 X
Track quality 100.0 %
Test CRC 1DDDE809
Copy CRC 1DDDE809
Cannot be verified as accurate (confidence 8) [0F1F2123], AccurateRip returned [5BCEBCA6] (AR v2)
Copy OK
Track 4
Filename D:\Temp\Natalie Dessay - Mozart concert arias\04. ''Se tutti i mali miei'', K.83 (1770) - Text- Pietro Metastaso.wav
Pre-gap length 0:00:04.47
Peak level 69.2 %
Extraction speed 1.7 X
Track quality 99.9 %
Test CRC 76340378
Copy CRC 76340378
Cannot be verified as accurate (confidence 8) [761B1A97], AccurateRip returned [48A6472D] (AR v2)
Copy OK
Track 5
Filename D:\Temp\Natalie Dessay - Mozart concert arias\05. ''Popoli di Tessaglia... Io non chiedo'', KV 316 (1778) - Text- Ranieri Calzabigi.wav
Pre-gap length 0:00:04.05
Peak level 99.7 %
Extraction speed 2.1 X
Track quality 100.0 %
Test CRC 5B5B4294
Copy CRC 5B5B4294
Cannot be verified as accurate (confidence 8) [E637243E], AccurateRip returned [6CFC578D] (AR v2)
Copy OK
Track 6
Filename D:\Temp\Natalie Dessay - Mozart concert arias\06. ''Mia speranza adorata... Ah, non sai'', KV 416 (1783) - Text- Gaetano Sertor.wav
Pre-gap length 0:00:04.40
Peak level 79.4 %
Extraction speed 2.3 X
Track quality 100.0 %
Test CRC E52F0B7D
Copy CRC E52F0B7D
Cannot be verified as accurate (confidence 8) [546F9BF5], AccurateRip returned [6F9D65FF] (AR v2)
Copy OK
Track 7
Filename D:\Temp\Natalie Dessay - Mozart concert arias\07. ''Alcandro, lo confesso... Non so donde viene'', KV 294 (1778) - Text- Pietro Metastaso.wav
Pre-gap length 0:00:03.17
Peak level 80.3 %
Extraction speed 2.4 X
Track quality 100.0 %
Test CRC 7737FB8A
Copy CRC 7737FB8A
Cannot be verified as accurate (confidence 8) [D4C9D85C], AccurateRip returned [01AA9629] (AR v2)
Copy OK
Track 8
Filename D:\Temp\Natalie Dessay - Mozart concert arias\08. ''Ma che vi fece, o stelle... Sperai vicino il lido'', KV 368 (1781) - Text- Pietro Metastaso.wav
Pre-gap length 0:00:02.17
Peak level 92.9 %
Extraction speed 2.4 X
Track quality 99.9 %
Test CRC 3CC4C8DC
Copy CRC 3CC4C8DC
Cannot be verified as accurate (confidence 8) [BFADE1D6], AccurateRip returned [B24E13B3] (AR v2)
Copy OK
No tracks could be verified as accurate
You may have a different pressing from the one(s) in the database
No errors occurred
End of status report
==== Log checksum 848FECEA484645156A7743825149C2AF21ACE2A1721623E2957F0326D6630F20 ====

Содержание индексной карты (.CUE)

Mozart, Airs de concert.cue

REM GENRE Opera
REM DATE 1995
REM DISCID 690EF008
REM COMMENT "ExactAudioCopy v1.0b3"
CATALOG 0724347685521
PERFORMER "Natalie Dessay"
TITLE "Mozart, Airs de concert"
FILE "01. ''Ah se in ciel, benigne stelle'', KV 538 (1788) - Text- Pietro Metastaso.wav" WAVE
TRACK 01 AUDIO
TITLE "''Ah se in ciel, benigne stelle'', KV 538 (1788) - Text: Pietro Metastaso"
PERFORMER "Natalie Dessay"
ISRC FRYA19501930
INDEX 01 00:00:00
TRACK 02 AUDIO
TITLE "''Vorrei spiegarvi, oh Dio!'', KV 418 (1783)"
PERFORMER "Natalie Dessay"
ISRC FRYA19501940
INDEX 00 07:20:32
FILE "02. ''Vorrei spiegarvi, oh Dio!'', KV 418 (1783).wav" WAVE
INDEX 01 00:00:00
TRACK 03 AUDIO
TITLE "''No, che non sei capace'', KV 419 (1783)"
PERFORMER "Natalie Dessay"
ISRC FRYA19501950
INDEX 00 07:09:13
FILE "03. ''No, che non sei capace'', KV 419 (1783).wav" WAVE
INDEX 01 00:00:00
TRACK 04 AUDIO
TITLE "''Se tutti i mali miei'', K.83 (1770) - Text: Pietro Metastaso"
PERFORMER "Natalie Dessay"
ISRC FRYA19501960
INDEX 00 04:29:10
FILE "04. ''Se tutti i mali miei'', K.83 (1770) - Text- Pietro Metastaso.wav" WAVE
INDEX 01 00:00:00
TRACK 05 AUDIO
TITLE "''Popoli di Tessaglia... Io non chiedo'', KV 316 (1778) - Text: Ranieri Calza..."
PERFORMER "Natalie Dessay"
ISRC FRYA19501970
INDEX 00 06:59:40
FILE "05. ''Popoli di Tessaglia... Io non chiedo'', KV 316 (1778) - Text- Ranieri Calzabigi.wav" WAVE
INDEX 01 00:00:00
TRACK 06 AUDIO
TITLE "''Mia speranza adorata... Ah, non sai'', KV 416 (1783) - Text: Gaetano Sertor"
PERFORMER "Natalie Dessay"
ISRC FRYA19501980
INDEX 00 10:56:50
FILE "06. ''Mia speranza adorata... Ah, non sai'', KV 416 (1783) - Text- Gaetano Sertor.wav" WAVE
INDEX 01 00:00:00
TRACK 07 AUDIO
TITLE "''Alcandro, lo confesso... Non so donde viene'', KV 294 (1778) - Text: Pietro..."
PERFORMER "Natalie Dessay"
ISRC FRYA19501990
INDEX 00 08:51:08
FILE "07. ''Alcandro, lo confesso... Non so donde viene'', KV 294 (1778) - Text- Pietro Metastaso.wav" WAVE
INDEX 01 00:00:00
TRACK 08 AUDIO
TITLE "''Ma che vi fece, o stelle... Sperai vicino il lido'', KV 368 (1781) - Text: ..."
PERFORMER "Natalie Dessay"
ISRC FRYA19502000
INDEX 00 08:57:63
FILE "08. ''Ma che vi fece, o stelle... Sperai vicino il lido'', KV 368 (1781) - Text- Pietro Metastaso.wav" WAVE
INDEX 01 00:00:00



Показать сообщения:    

Текущее время: 06-Дек 05:36

Часовой пояс: UTC + 3


Вы не можете начинать темы
Вы не можете отвечать на сообщения
Вы не можете редактировать свои сообщения
Вы не можете удалять свои сообщения
Вы не можете голосовать в опросах
Вы не можете прикреплять файлы к сообщениям
Вы не можете скачивать файлы