(Classical) Rosa Ponselle - The 1939 Victor and 1954 'Villa Pace' recordings - 1996, FLAC (image+.cue) lossless


 

[Цитировать]

Rosa Ponselle - The 1939 Victor and 1954 'Villa Pace' recordings
Жанр: Classical
Год издания диска: 1996
Издатель (лейбл): England Romophone
Номер по каталогу: 81022
Аудиокодек: FLAC
Тип рипа: image+.cue
Битрейт аудио: lossless
Продолжительность: 3:36;43
Источник: собственный рип
Наличие сканов в содержимом раздачи: да (только обложки)
Исполнители:
CD1: 1-8 with Romano Romani, pianist; 9-20,24 with Igor Chichagov, pianist;
21-23 with Rosa Ponselle, pianist
CD2: 1-11 & 13-16 with Igor Chichagov, pianist; 12 with Rosa Ponselle;
CD3: 1-14 & 19-21 with Igor Chichagov, pianist; 15-18 with Igor Chichagov, organist;
Треклист:
CD1 [77.00]
1. Tosti: Si tu voulais
2. de Fontenailles: A l'aime
3. Rimsky-Korsakov:The Nightingale and the Rose
4. Charles: When I Have Sung My Songs
5. Charles: When I Have Sung My Songs
6. Schubert: Ave Maria
7. Arensky: On Wings Of Dreams
8. Schubert: Ave Maria
9. Martini: Plaisir d'amour
10. 18th century bergerette; arr. By J.B.Weckerlin: Jeune fillette
11. Debussy: Beau soir
12. Delibes: Bonjour, Suzon
13 Debussy: La chevelure
14. arr. By Gertrude Ross: Carmen-Carmela
15. Granados: El Mirar de la Maja
16. Alvarez: La partida
17. Paisello: La Molinara: Nel cor piu non mi sento
18. attr. Rosa: Star vicino
19. Tosti: 'A Vucchella
20. Ideale
21. Marechiare
22. Sadero: Fa la nana, bambin
23. Falvo: Dicitencello vuje
24. Tosti: Could I
CD2 [65.43]
1. Lully: Amadis: Bois espais
2. Persico: Rosemonde
3. Saint-Saens: Guitares et mandolines
4. Chaussson: From: 'Poem de l'amour et de la mer': Le temps des Lilas
5. Brahms: Von ewiger Liebe, Op 43 No. 1
6. Trunk: Mir traumte von einem Konigskind, Op. 4 No. 5
7. Schubert: Erlkonig, Op. I
8. Beethoven: In questa tomba oscura
9. Wolf-Ferrari; Rispetto
10. Donaudy: O del mio amato ben
11. Tosti: Aprile
12. Sadero: Amuri, amuri
13. I battitori di grano
14. trad. Drink To Me Only With Thine Eyes
15. Farley: The Night Wind
16. del Riego: Homing
17. Interview With Ruby Mercer: Introduction And Announcement Of Lully's - 'Bois epais'
18. Comments On Persico's - 'Rosemonde'
19. Comments On Saint-Saens's - 'Guitares et mandolines'
20. Comments On Brahms's - 'Von ewiger Liebe'
21. Comments On Trunk's Mir - 'traumte von einem Konigskind'
22. Comments On Schubert's - 'Erlkonig'
23. Comments On Beethoven's - 'In questa tomba oscura'
24. Comments On Wolf-Ferrari's - 'Rispetto'
25. Comments ON Donaudy's - 'O del amato ben'
26. Comments On Tosti's - 'Aprile'
27. Comments On Sadero's - 'Amuri, amuri'
28. Comments On Sadero's - 'I battitori di grano'
29. Comments On - 'Drink To Me Only With Thine Eyes'
30. Comments On Farley's - 'The Night Wind'
31. Comments On de Riego's - 'Homing And Concluding Remarks'
CD3 [74.01]
1. Mozart: Le nozze di Figaro: Voi che sapete
2. Ciampi; formerly attr. to Pergolesi: Tre giorni son che Nina
3. Schubert: An die Musik, Op. 88 No. 4
4. Schubert: Der Tod und das Madchen, Op. 7 No. 3
5. Wagner: Traume, No. 5 From ' Wesendonck Lieder'
6. R.Strauss: Morgen!, Op. 27 No. 4
7. Tchaikovsky: Nur wer die Sehnsucht kennt, Op. 6 No. 6
8. Duparc: L'invitation au voyage
9. Paladilhe: Psyche
10. Chopin; arr. By Litvinne: Tristesse eternelle
11. De Falla: From 'Seven Popular Spanish Songs': Asturiana, No. 3
12. Nana, No. 5
13. Munro: My Lovely Celia
14. Lockhart-Manning: In The Luxembourg Gardens
15. Bizet: Angus Dei
16. Luzzi: Ave Maria
17. Millard: Ave Maria
18. Sandoval: Ave Maria
19. Tosti: Ave Maria
20. Denza: Se
21. Buzzi-Peccia: Colombetta

LOG EAC

CD1

Exact Audio Copy V1.0 beta 3 from 29. August 2011
EAC extraction logfile from 18. January 2014, 15:47
Rosa Ponselle / The 1939 Victor and 1954 'Villa Pace' recordings - CD1
Used drive : ATAPI iHAS122 C Adapter: 0 ID: 1
Read mode : Secure
Utilize accurate stream : Yes
Defeat audio cache : Yes
Make use of C2 pointers : No
Read offset correction : 6
Overread into Lead-In and Lead-Out : No
Fill up missing offset samples with silence : Yes
Delete leading and trailing silent blocks : No
Null samples used in CRC calculations : Yes
Used interface : Installed external ASPI interface
Used output format : User Defined Encoder
Selected bitrate : 192 kBit/s
Quality : High
Add ID3 tag : No
Command line compressor : C:\Program Files\Exact Audio Copy\Flac\flac.exe
Additional command line options : -V -8 -T "Date=%year%" -T "Genre=%genre%" %source%
TOC of the extracted CD
Track | Start | Length | Start sector | End sector
---------------------------------------------------------
1 | 0:00.00 | 2:53.05 | 0 | 12979
2 | 2:53.05 | 3:50.35 | 12980 | 30264
3 | 6:43.40 | 3:51.05 | 30265 | 47594
4 | 10:34.45 | 2:03.50 | 47595 | 56869
5 | 12:38.20 | 2:18.02 | 56870 | 67221
6 | 14:56.22 | 5:12.70 | 67222 | 90691
7 | 20:09.17 | 3:41.08 | 90692 | 107274
8 | 23:50.25 | 5:10.65 | 107275 | 130589
9 | 29:01.15 | 3:58.40 | 130590 | 148479
10 | 32:59.55 | 1:40.57 | 148480 | 156036
11 | 34:40.37 | 2:35.03 | 156037 | 167664
12 | 37:15.40 | 2:48.17 | 167665 | 180281
13 | 40:03.57 | 3:32.45 | 180282 | 196226
14 | 43:36.27 | 2:23.30 | 196227 | 206981
15 | 45:59.57 | 3:20.45 | 206982 | 222026
16 | 49:20.27 | 4:11.50 | 222027 | 240901
17 | 53:32.02 | 1:51.58 | 240902 | 249284
18 | 55:23.60 | 1:48.17 | 249285 | 257401
19 | 57:12.02 | 2:00.45 | 257402 | 266446
20 | 59:12.47 | 3:44.53 | 266447 | 283299
21 | 62:57.25 | 2:56.57 | 283300 | 296556
22 | 65:54.07 | 2:46.15 | 296557 | 309021
23 | 68:40.22 | 3:22.13 | 309022 | 324184
24 | 72:02.35 | 4:57.40 | 324185 | 346499
Range status and errors
Selected range
Filename C:\Program Files\Exact Audio Copy\Flac\Rosa Ponselle - The 1939 Victor and 1954 'Villa Pace' - CD1.wav
Peak level 71.1 %
Extraction speed 10.4 X
Range quality 100.0 %
Test CRC 64253CE8
Copy CRC 64253CE8
Copy OK
No errors occurred
AccurateRip summary
Track 1 accurately ripped (confidence 2) [EDE38FCF] (AR v2)
Track 2 accurately ripped (confidence 2) [0B9DE318] (AR v2)
Track 3 accurately ripped (confidence 2) [319E58F6] (AR v2)
Track 4 accurately ripped (confidence 2) [B993D590] (AR v2)
Track 5 accurately ripped (confidence 2) [E2DA5788] (AR v2)
Track 6 accurately ripped (confidence 2) [7537455D] (AR v2)
Track 7 accurately ripped (confidence 2) [BE6A5D74] (AR v2)
Track 8 accurately ripped (confidence 2) [63807DA9] (AR v2)
Track 9 accurately ripped (confidence 2) [5B270D86] (AR v2)
Track 10 accurately ripped (confidence 2) [D2BDCE4B] (AR v2)
Track 11 accurately ripped (confidence 2) [23148109] (AR v2)
Track 12 accurately ripped (confidence 2) [8344AF92] (AR v2)
Track 13 accurately ripped (confidence 2) [E2F9447E] (AR v2)
Track 14 accurately ripped (confidence 2) [2AA46D24] (AR v2)
Track 15 accurately ripped (confidence 2) [8C378A62] (AR v2)
Track 16 accurately ripped (confidence 2) [E430CC9B] (AR v2)
Track 17 accurately ripped (confidence 2) [8D3EC73B] (AR v2)
Track 18 accurately ripped (confidence 2) [D54044B2] (AR v2)
Track 19 accurately ripped (confidence 2) [971BE98E] (AR v2)
Track 20 accurately ripped (confidence 2) [C39EB7C4] (AR v2)
Track 21 accurately ripped (confidence 2) [ADCE38F0] (AR v2)
Track 22 accurately ripped (confidence 2) [2D25DE70] (AR v2)
Track 23 accurately ripped (confidence 2) [6DD82646] (AR v2)
Track 24 accurately ripped (confidence 2) [AADFD748] (AR v2)
All tracks accurately ripped
End of status report
==== Log checksum 0D530F963FFC49315AAB43B860BE05EA5094447EABCF7C3C8E67513CB8124B80 ====

CD2

Exact Audio Copy V1.0 beta 3 from 29. August 2011
EAC extraction logfile from 18. January 2014, 16:05
Rosa Ponselle / The 1939 Victor and 1954 'Villa Pace' recordings - CD2
Used drive : ATAPI iHAS122 C Adapter: 0 ID: 1
Read mode : Secure
Utilize accurate stream : Yes
Defeat audio cache : Yes
Make use of C2 pointers : No
Read offset correction : 6
Overread into Lead-In and Lead-Out : No
Fill up missing offset samples with silence : Yes
Delete leading and trailing silent blocks : No
Null samples used in CRC calculations : Yes
Used interface : Installed external ASPI interface
Used output format : User Defined Encoder
Selected bitrate : 192 kBit/s
Quality : High
Add ID3 tag : No
Command line compressor : C:\Program Files\Exact Audio Copy\Flac\flac.exe
Additional command line options : -V -8 -T "Date=%year%" -T "Genre=%genre%" %source%
TOC of the extracted CD
Track | Start | Length | Start sector | End sector
---------------------------------------------------------
1 | 0:00.00 | 3:16.20 | 0 | 14719
2 | 3:16.20 | 3:30.10 | 14720 | 30479
3 | 6:46.30 | 1:35.32 | 30480 | 37636
4 | 8:21.62 | 4:55.38 | 37637 | 59799
5 | 13:17.25 | 5:07.70 | 59800 | 82894
6 | 18:25.20 | 3:09.70 | 82895 | 97139
7 | 21:35.15 | 4:02.25 | 97140 | 115314
8 | 25:37.40 | 3:22.47 | 115315 | 130511
9 | 29:00.12 | 1:08.30 | 130512 | 135641
10 | 30:08.42 | 4:31.33 | 135642 | 155999
11 | 34:40.00 | 2:55.67 | 156000 | 169191
12 | 37:35.67 | 4:18.48 | 169192 | 188589
13 | 41:54.40 | 1:13.50 | 188590 | 194114
14 | 43:08.15 | 2:57.37 | 194115 | 207426
15 | 46:05.52 | 1:39.03 | 207427 | 214854
16 | 47:44.55 | 2:35.17 | 214855 | 226496
17 | 50:19.72 | 1:24.03 | 226497 | 232799
18 | 51:44.00 | 0:54.00 | 232800 | 236849
19 | 52:38.00 | 0:54.52 | 236850 | 240951
20 | 53:32.52 | 1:09.15 | 240952 | 246141
21 | 54:41.67 | 0:43.45 | 246142 | 249411
22 | 55:25.37 | 1:42.03 | 249412 | 257064
23 | 57:07.40 | 1:03.60 | 257065 | 261849
24 | 58:11.25 | 0:32.17 | 261850 | 264266
25 | 58:43.42 | 0:52.63 | 264267 | 268229
26 | 59:36.30 | 1:06.32 | 268230 | 273211
27 | 60:42.62 | 0:49.18 | 273212 | 276904
28 | 61:32.05 | 0:32.60 | 276905 | 279364
29 | 62:04.65 | 0:59.00 | 279365 | 283789
30 | 63:03.65 | 0:50.37 | 283790 | 287576
31 | 63:54.27 | 1:48.48 | 287577 | 295724
Range status and errors
Selected range
Filename C:\Program Files\Exact Audio Copy\Flac\Rosa Ponselle - The 1939 Victor and 1954 'Villa Pace' - CD2.wav
Peak level 64.3 %
Extraction speed 9.8 X
Range quality 100.0 %
Test CRC 88510FD2
Copy CRC 88510FD2
Copy OK
No errors occurred
AccurateRip summary
Track 1 accurately ripped (confidence 2) [5E88D685] (AR v2)
Track 2 accurately ripped (confidence 2) [E4A699B3] (AR v2)
Track 3 accurately ripped (confidence 2) [3FB36882] (AR v2)
Track 4 accurately ripped (confidence 2) [99F7BFC8] (AR v2)
Track 5 accurately ripped (confidence 2) [F2098C2E] (AR v2)
Track 6 accurately ripped (confidence 2) [10E14461] (AR v2)
Track 7 accurately ripped (confidence 2) [96F963DE] (AR v2)
Track 8 accurately ripped (confidence 2) [45097A1A] (AR v2)
Track 9 accurately ripped (confidence 2) [D1895768] (AR v2)
Track 10 accurately ripped (confidence 2) [0D486D74] (AR v2)
Track 11 accurately ripped (confidence 2) [71DF05EF] (AR v2)
Track 12 accurately ripped (confidence 2) [A901EBDA] (AR v2)
Track 13 accurately ripped (confidence 2) [4E8B21C3] (AR v2)
Track 14 accurately ripped (confidence 2) [43210E82] (AR v2)
Track 15 accurately ripped (confidence 2) [0C378E52] (AR v2)
Track 16 accurately ripped (confidence 2) [7CDC40A0] (AR v2)
Track 17 accurately ripped (confidence 2) [BBE6D24B] (AR v2)
Track 18 accurately ripped (confidence 2) [544C0744] (AR v2)
Track 19 accurately ripped (confidence 2) [7B3BA87D] (AR v2)
Track 20 accurately ripped (confidence 2) [FD862561] (AR v2)
Track 21 accurately ripped (confidence 2) [2BA03A83] (AR v2)
Track 22 accurately ripped (confidence 2) [59DEAD3B] (AR v2)
Track 23 accurately ripped (confidence 2) [3E5FA94B] (AR v2)
Track 24 accurately ripped (confidence 2) [0179C476] (AR v2)
Track 25 accurately ripped (confidence 2) [C81377D1] (AR v2)
Track 26 accurately ripped (confidence 2) [CA2E6ACA] (AR v2)
Track 27 accurately ripped (confidence 2) [B0DFFCB0] (AR v2)
Track 28 accurately ripped (confidence 2) [B68468BC] (AR v2)
Track 29 accurately ripped (confidence 2) [D579DACF] (AR v2)
Track 30 accurately ripped (confidence 2) [A0D52842] (AR v2)
Track 31 accurately ripped (confidence 2) [7A0F3942] (AR v2)
All tracks accurately ripped
End of status report
==== Log checksum B77F3EF4A3331B631A47EB19CF01AF5483FAA9A9C86455A6FB18073BC10A75E1 ====

CD3

Exact Audio Copy V1.0 beta 3 from 29. August 2011
EAC extraction logfile from 18. January 2014, 16:25
Rosa Ponselle / The 1939 Victor and 1954 'Villa Pace' recordings - CD3
Used drive : ATAPI iHAS122 C Adapter: 0 ID: 1
Read mode : Secure
Utilize accurate stream : Yes
Defeat audio cache : Yes
Make use of C2 pointers : No
Read offset correction : 6
Overread into Lead-In and Lead-Out : No
Fill up missing offset samples with silence : Yes
Delete leading and trailing silent blocks : No
Null samples used in CRC calculations : Yes
Used interface : Installed external ASPI interface
Used output format : User Defined Encoder
Selected bitrate : 192 kBit/s
Quality : High
Add ID3 tag : No
Command line compressor : C:\Program Files\Exact Audio Copy\Flac\flac.exe
Additional command line options : -V -8 -T "Date=%year%" -T "Genre=%genre%" %source%
TOC of the extracted CD
Track | Start | Length | Start sector | End sector
---------------------------------------------------------
1 | 0:00.00 | 2:48.22 | 0 | 12621
2 | 2:48.22 | 2:35.55 | 12622 | 24301
3 | 5:24.02 | 3:03.25 | 24302 | 38051
4 | 8:27.27 | 2:50.40 | 38052 | 50841
5 | 11:17.67 | 5:03.50 | 50842 | 73616
6 | 16:21.42 | 4:02.30 | 73617 | 91796
7 | 20:23.72 | 3:23.13 | 91797 | 107034
8 | 23:47.10 | 4:26.25 | 107035 | 127009
9 | 28:13.35 | 3:11.62 | 127010 | 141396
10 | 31:25.22 | 3:25.23 | 141397 | 156794
11 | 34:50.45 | 2:57.37 | 156795 | 170106
12 | 37:48.07 | 1:45.40 | 170107 | 178021
13 | 39:33.47 | 2:22.63 | 178022 | 188734
14 | 41:56.35 | 2:19.05 | 188735 | 199164
15 | 44:15.40 | 3:13.65 | 199165 | 213704
16 | 47:29.30 | 4:20.40 | 213705 | 233244
17 | 51:49.70 | 5:56.17 | 233245 | 259961
18 | 57:46.12 | 4:31.55 | 259962 | 280341
19 | 62:17.67 | 3:40.53 | 280342 | 296894
20 | 65:58.45 | 4:32.30 | 296895 | 317324
21 | 70:31.00 | 3:29.47 | 317325 | 333046
Range status and errors
Selected range
Filename C:\Program Files\Exact Audio Copy\Flac\Rosa Ponselle - The 1939 Victor and 1954 'Villa Pace' - CD3.wav
Peak level 87.3 %
Extraction speed 10.2 X
Range quality 100.0 %
Test CRC 0CCB544B
Copy CRC 0CCB544B
Copy OK
No errors occurred
AccurateRip summary
Track 1 accurately ripped (confidence 2) [E1FC9052] (AR v2)
Track 2 accurately ripped (confidence 2) [50FEB72D] (AR v2)
Track 3 accurately ripped (confidence 2) [3BA83913] (AR v2)
Track 4 accurately ripped (confidence 2) [6F3F2ACE] (AR v2)
Track 5 accurately ripped (confidence 2) [A383C822] (AR v2)
Track 6 accurately ripped (confidence 2) [30EC60A2] (AR v2)
Track 7 accurately ripped (confidence 2) [1476A6FF] (AR v2)
Track 8 accurately ripped (confidence 2) [3F5E1525] (AR v2)
Track 9 accurately ripped (confidence 2) [0D8AF96C] (AR v2)
Track 10 accurately ripped (confidence 2) [32015736] (AR v2)
Track 11 accurately ripped (confidence 2) [AE4BD3D7] (AR v2)
Track 12 accurately ripped (confidence 2) [BAE60D84] (AR v2)
Track 13 accurately ripped (confidence 2) [A7AD608B] (AR v2)
Track 14 accurately ripped (confidence 2) [3F88A208] (AR v2)
Track 15 accurately ripped (confidence 2) [8D6A5864] (AR v2)
Track 16 accurately ripped (confidence 2) [EE14A362] (AR v2)
Track 17 accurately ripped (confidence 2) [9D0FDCD3] (AR v2)
Track 18 accurately ripped (confidence 2) [FCDD7411] (AR v2)
Track 19 accurately ripped (confidence 2) [A76E1FBF] (AR v2)
Track 20 accurately ripped (confidence 2) [8B8C30C7] (AR v2)
Track 21 accurately ripped (confidence 2) [15787DAC] (AR v2)
All tracks accurately ripped
End of status report
==== Log checksum CF44529054BE351A2329E900EC639602A8BD19175F868BB980287B0642C3955F ====

Содержание индексной карты (.CUE)

CD1

REM GENRE Classical
REM DATE 1996
REM DISCID 55120C18
REM COMMENT "ExactAudioCopy v1.0b3"
PERFORMER "Rosa Ponselle"
TITLE "The 1939 Victor and 1954 'Villa Pace' recordings - CD1"
FILE "Rosa Ponselle - The 1939 Victor and 1954 'Villa Pace' - CD1.flac" WAVE
TRACK 01 AUDIO
TITLE "Tosti: Si tu voulais"
PERFORMER "Rosa Ponselle"
INDEX 01 00:00:00
TRACK 02 AUDIO
TITLE "de Fontenailles: A l'aime"
PERFORMER "Rosa Ponselle"
INDEX 00 02:51:05
INDEX 01 02:53:05
TRACK 03 AUDIO
TITLE "Rimsky-Korsakov:The Nightingale and the Rose"
PERFORMER "Rosa Ponselle"
INDEX 00 06:41:40
INDEX 01 06:43:40
TRACK 04 AUDIO
TITLE "Charles: When I Have Sung My Songs"
PERFORMER "Rosa Ponselle"
INDEX 00 10:32:45
INDEX 01 10:34:45
TRACK 05 AUDIO
TITLE "When I Have Sung My Songs"
PERFORMER "Rosa Ponselle"
INDEX 00 12:36:20
INDEX 01 12:38:20
TRACK 06 AUDIO
TITLE "Schubert: Ave Maria"
PERFORMER "Rosa Ponselle"
INDEX 00 14:54:22
INDEX 01 14:56:22
TRACK 07 AUDIO
TITLE "Arensky: On Wings Of Dreams"
PERFORMER "Rosa Ponselle"
INDEX 00 20:07:17
INDEX 01 20:09:17
TRACK 08 AUDIO
TITLE "Schubert: Ave Maria"
PERFORMER "Rosa Ponselle"
INDEX 00 23:48:25
INDEX 01 23:50:25
TRACK 09 AUDIO
TITLE "Martini: Plaisir d'amour"
PERFORMER "Rosa Ponselle"
INDEX 00 28:57:15
INDEX 01 29:01:15
TRACK 10 AUDIO
TITLE "18th century bergerette; arr. By J.B.Weckerlin: Jeune fillette"
PERFORMER "Rosa Ponselle"
INDEX 00 32:58:55
INDEX 01 32:59:55
TRACK 11 AUDIO
TITLE "Debussy: Beau soir"
PERFORMER "Rosa Ponselle"
INDEX 00 34:37:37
INDEX 01 34:40:37
TRACK 12 AUDIO
TITLE "Bonjour, Suzon"
PERFORMER "Rosa Ponselle"
INDEX 00 37:12:40
INDEX 01 37:15:40
TRACK 13 AUDIO
TITLE "Le chevelure"
PERFORMER "Rosa Ponselle"
INDEX 00 40:01:57
INDEX 01 40:03:57
TRACK 14 AUDIO
TITLE "arr. By Gertrude Ross: Carmen-Carmela"
PERFORMER "Rosa Ponselle"
INDEX 00 43:35:27
INDEX 01 43:36:27
TRACK 15 AUDIO
TITLE "Granados: El Mirar de la Maja"
PERFORMER "Rosa Ponselle"
INDEX 00 45:57:57
INDEX 01 45:59:57
TRACK 16 AUDIO
TITLE "Alvarez: La partida"
PERFORMER "Rosa Ponselle"
INDEX 00 49:18:27
INDEX 01 49:20:27
TRACK 17 AUDIO
TITLE "Paisello: La Molinara: Nel cor piu non mi sento"
PERFORMER "Rosa Ponselle"
INDEX 00 53:29:02
INDEX 01 53:32:02
TRACK 18 AUDIO
TITLE "attr. Rosa: Star vicino"
PERFORMER "Rosa Ponselle"
INDEX 00 55:21:60
INDEX 01 55:23:60
TRACK 19 AUDIO
TITLE "Tosti: 'A Vucchella"
PERFORMER "Rosa Ponselle"
INDEX 00 57:09:02
INDEX 01 57:12:02
TRACK 20 AUDIO
TITLE "Ideale"
PERFORMER "Rosa Ponselle"
INDEX 00 59:10:47
INDEX 01 59:12:47
TRACK 21 AUDIO
TITLE "Marechiare"
PERFORMER "Rosa Ponselle"
INDEX 00 62:55:25
INDEX 01 62:57:25
TRACK 22 AUDIO
TITLE "Sadero: Fa la nana, bambin"
PERFORMER "Rosa Ponselle"
INDEX 00 65:52:07
INDEX 01 65:54:07
TRACK 23 AUDIO
TITLE "Falvo: Dicitencello vuje"
PERFORMER "Rosa Ponselle"
INDEX 00 68:37:22
INDEX 01 68:40:22
TRACK 24 AUDIO
TITLE "Tosti: Could I"
PERFORMER "Rosa Ponselle"
INDEX 00 71:59:35
INDEX 01 72:02:35

CD2

REM GENRE Classical
REM DATE 1996
REM DISCID E00F671F
REM COMMENT "ExactAudioCopy v1.0b3"
PERFORMER "Rosa Ponselle"
TITLE "The 1939 Victor and 1954 'Villa Pace' recordings - CD2"
FILE "Rosa Ponselle - The 1939 Victor and 1954 'Villa Pace' - CD2.flac" WAVE
TRACK 01 AUDIO
TITLE "Lully: Amadis: Bois espais"
PERFORMER "Rosa Ponselle"
INDEX 01 00:00:00
TRACK 02 AUDIO
TITLE "Persico: Rosemonde"
PERFORMER "Rosa Ponselle"
INDEX 00 03:13:20
INDEX 01 03:16:20
TRACK 03 AUDIO
TITLE "Saint-Saens: Guitares et mandolines"
PERFORMER "Rosa Ponselle"
INDEX 00 06:42:30
INDEX 01 06:46:30
TRACK 04 AUDIO
TITLE "Chaussson: From: 'Poem de l'amour et de la mer': Le temps des Lilas"
PERFORMER "Rosa Ponselle"
INDEX 00 08:17:62
INDEX 01 08:21:62
TRACK 05 AUDIO
TITLE "Brahms: Von ewiger Liebe, Op 43 No. 1"
PERFORMER "Rosa Ponselle"
INDEX 00 13:14:25
INDEX 01 13:17:25
TRACK 06 AUDIO
TITLE "Trunk: Mir traumte von einem Konigskind, Op. 4 No. 5"
PERFORMER "Rosa Ponselle"
INDEX 00 18:23:20
INDEX 01 18:25:20
TRACK 07 AUDIO
TITLE "Schubert: Erlkonig, Op. I"
PERFORMER "Rosa Ponselle"
INDEX 00 21:32:15
INDEX 01 21:35:15
TRACK 08 AUDIO
TITLE "Beethoven: In questa tomba oscura"
PERFORMER "Rosa Ponselle"
INDEX 00 25:34:40
INDEX 01 25:37:40
TRACK 09 AUDIO
TITLE "Wolf-Ferrari; Rispetto"
PERFORMER "Rosa Ponselle"
INDEX 00 28:57:12
INDEX 01 29:00:12
TRACK 10 AUDIO
TITLE "Donaudy: O del mio amato ben"
PERFORMER "Rosa Ponselle"
INDEX 00 30:05:42
INDEX 01 30:08:42
TRACK 11 AUDIO
TITLE "Tosti: Aprile"
PERFORMER "Rosa Ponselle"
INDEX 00 34:37:00
INDEX 01 34:40:00
TRACK 12 AUDIO
TITLE "Sadero: Amuri, amuri"
PERFORMER "Rosa Ponselle"
INDEX 00 37:32:67
INDEX 01 37:35:67
TRACK 13 AUDIO
TITLE "Sadero: I battitori di grano"
PERFORMER "Rosa Ponselle"
INDEX 00 41:51:40
INDEX 01 41:54:40
TRACK 14 AUDIO
TITLE "trad. Drink To Me Only With Thine Eyes"
PERFORMER "Rosa Ponselle"
INDEX 00 43:06:15
INDEX 01 43:08:15
TRACK 15 AUDIO
TITLE "Farley: The Night Wind"
PERFORMER "Rosa Ponselle"
INDEX 00 46:03:52
INDEX 01 46:05:52
TRACK 16 AUDIO
TITLE "del Riego: Homing"
PERFORMER "Rosa Ponselle"
INDEX 00 47:41:55
INDEX 01 47:44:55
TRACK 17 AUDIO
TITLE "Interview With Ruby Mercer: Introduction And Announcement Of Lully's - 'Bois ..."
PERFORMER "Rosa Ponselle"
INDEX 00 50:17:72
INDEX 01 50:19:72
TRACK 18 AUDIO
TITLE "Comments On Persico's - 'Rosemonde'"
PERFORMER "Rosa Ponselle"
INDEX 00 51:42:00
INDEX 01 51:44:00
TRACK 19 AUDIO
TITLE "Comments On Saint-Saens's - 'Guitares et mandolines'"
PERFORMER "Rosa Ponselle"
INDEX 00 52:36:00
INDEX 01 52:38:00
TRACK 20 AUDIO
TITLE "Comments On Brahms's - 'Von ewiger Liebe'"
PERFORMER "Rosa Ponselle"
INDEX 00 53:30:52
INDEX 01 53:32:52
TRACK 21 AUDIO
TITLE "Comments On Trunk's Mir - 'traumte von einem Konigskind'"
PERFORMER "Rosa Ponselle"
INDEX 00 54:39:67
INDEX 01 54:41:67
TRACK 22 AUDIO
TITLE "Comments On Schubert's - 'Erlkonig'"
PERFORMER "Rosa Ponselle"
INDEX 00 55:23:37
INDEX 01 55:25:37
TRACK 23 AUDIO
TITLE "Comments On Beethoven's - 'In questa tomba oscura'"
PERFORMER "Rosa Ponselle"
INDEX 00 57:05:40
INDEX 01 57:07:40
TRACK 24 AUDIO
TITLE "Comments On Wolf-Ferrari's - 'Rispetto'"
PERFORMER "Rosa Ponselle"
INDEX 00 58:09:25
INDEX 01 58:11:25
TRACK 25 AUDIO
TITLE "Comments On Donaudy's - 'O del amato ben'"
PERFORMER "Rosa Ponselle"
INDEX 00 58:41:42
INDEX 01 58:43:42
TRACK 26 AUDIO
TITLE "Comments On Tosti's - 'Aprile'"
PERFORMER "Rosa Ponselle"
INDEX 00 59:34:30
INDEX 01 59:36:30
TRACK 27 AUDIO
TITLE "Comments On Sadero's - 'Amuri, amuri'"
PERFORMER "Rosa Ponselle"
INDEX 00 60:40:62
INDEX 01 60:42:62
TRACK 28 AUDIO
TITLE "Comments On Sadero's - 'I battitori di grano'"
PERFORMER "Rosa Ponselle"
INDEX 00 61:30:05
INDEX 01 61:32:05
TRACK 29 AUDIO
TITLE "Comments On - 'Drink To Me Only With Thine Eyes'"
PERFORMER "Rosa Ponselle"
INDEX 00 62:02:65
INDEX 01 62:04:65
TRACK 30 AUDIO
TITLE "Comments On Farley's - 'The Night Wind'"
PERFORMER "Rosa Ponselle"
INDEX 00 63:01:65
INDEX 01 63:03:65
TRACK 31 AUDIO
TITLE "Comments On de Riego's - 'Homing And Concluding Remarks'"
PERFORMER "Rosa Ponselle"
INDEX 00 63:52:27
INDEX 01 63:54:27

CD3

REM GENRE Classical
REM DATE 1996
REM DISCID 41115815
REM COMMENT "ExactAudioCopy v1.0b3"
PERFORMER "Rosa Ponselle"
TITLE "The 1939 Victor and 1954 'Villa Pace' recordings - CD3"
FILE "Rosa Ponselle - The 1939 Victor and 1954 'Villa Pace' - CD3.flac" WAVE
TRACK 01 AUDIO
TITLE "Mozart: Le nozze di Figaro: Voi che sapete"
PERFORMER "Rosa Ponselle"
INDEX 01 00:00:00
TRACK 02 AUDIO
TITLE "Ciampi; formerly attr. to Pergolesi: Tre giorni son che Nina"
PERFORMER "Rosa Ponselle"
INDEX 00 02:44:22
INDEX 01 02:48:22
TRACK 03 AUDIO
TITLE "Schubert: An die Musik, Op. 88 No. 4"
PERFORMER "Rosa Ponselle"
INDEX 00 05:21:02
INDEX 01 05:24:02
TRACK 04 AUDIO
TITLE "Der Tod und das Madchen, Op. 7 No. 3"
PERFORMER "Rosa Ponselle"
INDEX 00 08:24:27
INDEX 01 08:27:27
TRACK 05 AUDIO
TITLE "Wagner: Traume, No. 5 From ' Wesendonck Lieder'"
PERFORMER "Rosa Ponselle"
INDEX 00 11:15:67
INDEX 01 11:17:67
TRACK 06 AUDIO
TITLE "R.Strauss: Morgen!, Op. 27 No. 4"
PERFORMER "Rosa Ponselle"
INDEX 00 16:18:42
INDEX 01 16:21:42
TRACK 07 AUDIO
TITLE "Tchaikovsky: Nur wer die Sehnsucht kennt, Op. 6 No. 6"
PERFORMER "Rosa Ponselle"
INDEX 00 20:20:72
INDEX 01 20:23:72
TRACK 08 AUDIO
TITLE "Duparc: L'invitation au voyage"
PERFORMER "Rosa Ponselle"
INDEX 00 23:44:10
INDEX 01 23:47:10
TRACK 09 AUDIO
TITLE "Paladilhe: Psyche"
PERFORMER "Rosa Ponselle"
INDEX 00 28:10:35
INDEX 01 28:13:35
TRACK 10 AUDIO
TITLE "Chopin; arr. By Litvinne: Tristesse eternelle"
PERFORMER "Rosa Ponselle"
INDEX 00 31:22:22
INDEX 01 31:25:22
TRACK 11 AUDIO
TITLE "De Falla: From 'Seven Popular Spanish Songs': Asturiana, No. 3"
PERFORMER "Rosa Ponselle"
INDEX 00 34:47:45
INDEX 01 34:50:45
TRACK 12 AUDIO
TITLE "Nana, No.5"
PERFORMER "Rosa Ponselle"
INDEX 00 37:46:07
INDEX 01 37:48:07
TRACK 13 AUDIO
TITLE "Munro: My Lovely Celia"
PERFORMER "Rosa Ponselle"
INDEX 00 39:30:47
INDEX 01 39:33:47
TRACK 14 AUDIO
TITLE "Lockhart-Manning: In The Luxembourg Gardens"
PERFORMER "Rosa Ponselle"
INDEX 00 41:54:35
INDEX 01 41:56:35
TRACK 15 AUDIO
TITLE "Bizet: Angus Dei"
PERFORMER "Rosa Ponselle"
INDEX 00 44:11:40
INDEX 01 44:15:40
TRACK 16 AUDIO
TITLE "Luzzi: Ave Maria"
PERFORMER "Rosa Ponselle"
INDEX 00 47:26:30
INDEX 01 47:29:30
TRACK 17 AUDIO
TITLE "Millard: Ave Maria"
PERFORMER "Rosa Ponselle"
INDEX 00 51:46:70
INDEX 01 51:49:70
TRACK 18 AUDIO
TITLE "Sandoval: Ave Maria"
PERFORMER "Rosa Ponselle"
INDEX 00 57:44:12
INDEX 01 57:46:12
TRACK 19 AUDIO
TITLE "Tosti: Ave Maria"
PERFORMER "Rosa Ponselle"
INDEX 00 62:14:67
INDEX 01 62:17:67
TRACK 20 AUDIO
TITLE "Denza: Se"
PERFORMER "Rosa Ponselle"
INDEX 00 65:55:45
INDEX 01 65:58:45
TRACK 21 AUDIO
TITLE "Buzzi-Peccia: Colombetta"
PERFORMER "Rosa Ponselle"
INDEX 00 70:27:00
INDEX 01 70:31:00
Доп. информация:
Rosa Ponselle - По национальности итальянка. Выступала в кабаре вместе с сестрой. По приглашению Карузо дебютировала в Метрополитен Опера в 1918 (партия Леоноры в "Силе судьбы" Верди), пела здесь до 1936 (среди партий Рашель в "Жидовке" Галеви, Елизавета в "Дон Карлосе", Норма, Луиза Миллер в одноимённой опере Верди, Юлия в "Весталке" Спонтини и другие). В 1929-31 выступала в Ковент Гардене, гастролировала на других крупнейших сценах мира (Флоренция, Чикаго).
Понсель - одна из крупнейших певиц первой половины XX века. В 1937 году покинула сцену. Вела педагогическую деятельность (среди учеников Силс, Милнс, Моррис). После её смерти были опубликованы мемуары певицы (1982). Среди записей партия Виолетты (дирижёр Паниса, Pearl) и другие.
Е. Цодоков



Показать сообщения:    

Текущее время: 04-Дек 02:57

Часовой пояс: UTC + 3


Вы не можете начинать темы
Вы не можете отвечать на сообщения
Вы не можете редактировать свои сообщения
Вы не можете удалять свои сообщения
Вы не можете голосовать в опросах
Вы не можете прикреплять файлы к сообщениям
Вы не можете скачивать файлы