(Classical) Vesselina Kasarova - Offenbach: Belle Nuit (Pomme d'api,La Perichole,Les Contes D'Hoffmann, La Grande-Duchesse de Gerolstein,La Belle Helene,Barbe-Bleue,Orphee Aux Enfers) - 2008, FLAC (image+.cue) lossless


 

[Цитировать]

Vesselina Kasarova - Offenbach: Belle Nuit
(Pomme d'api, La Perichole, Les Contes D'Hoffmann, La Grande-Duchesse de Gerolstein, La Belle Helene, Barbe-Bleue, Orphee Aux Enfers)
Jacques Offenbach (1819-1880) Жанр: Classical
Страна-производитель диска: EU
Год издания диска: 2008
Издатель (лейбл): Sony BMG Music Entertainment
Номер по каталогу: 88697234552
Дата записи: 7.10.2007
Аудиокодек: FLAC
Тип рипа: image+.cue
Битрейт аудио: lossless
Продолжительность: 00:50:42
Источник: JVA
Наличие сканов в содержимом раздачи: да
Треклист:
Pomme d'api
01. "Bonjour monsieur, je suis la bonne" - Catherine (02:47)
02. "J'en prendrai un, deux, trois" - Catherine (02:20)
La Perichole
03. "Du Vice-Roi, c'est aujourd'hui la fete" (04:21)
Ouverture and Choeur de fete, Act 1
04. "O mon cher amant, je te jure que je t'aime" - La Perichole, Act 1 (03:18)
05. "Ah! Quel diner je viens de faire" - La Perichole, Act 1 (02:11)
Les Contes D'Hoffmann
06. "Belle nuit, o nuit d'amour" - Giulietta / Nicklausse, Act 2 (Barcarole)
(with Melissa Shippen, soprano) (04:06)
La Grande-Duchesse de Gerolstein
07. Ouverture (04:10)
08. "Portez armes - Vous aimez le danger... Ah! que j'aime les militaires" - La Grande-Duchesse and Choeur, Act 1 (05:35)
La Belle Helene
09. "On me nomme Helene la blonde" - Helene, Act 2 (03:00)
Barbe-Bleue
10. Ouverture (03:31)
11. "Y'a des berger's dans le village" - Boulotte, Act 1 (02:51)
12. "Faut-il y aller - V'la z'encor' de drol's de jeunesses" - Boulotte, Act 1 (03:46)
Orphee Aux Enfers
13. "Gloire a Jupiter" - Choeur, Act 2 (Andrew Lepri Meyer, tenor - Jupiter) (02:10)
14. "La femme dont le coeur reve n'a pas de sommeil" - Eurydice, Act 1 (02:49)
15. "Vive le vin!" - "Ah! Bacchus, mon ame legere" - Choeur infernal and finale, Act 4 (03:27)
Исполнители:
Vesselina Kasarova Mezzo-soprano
Chor Des Bayerischen Rundfunks
Udo Mehrpohl - Chorus Master
Muncher Rundfunkorchester
Ulf Schirmer - Conductor

Лог создания рипа

Exact Audio Copy V0.99 prebeta 5 from 4. May 2009
Отчёт EAC об извлечении, выполненном 2. декабря 2013, 15:42
Vasselina Kasarova / Offenbach: Belle Nuit - Kasarova
Дисковод: _NEC DVD_RW ND-4571A Adapter: 0 ID: 0
Режим чтения : ДостоверностьИспользование точного потока : ДаОтключение кэша аудио : ДаИспользование указателей C2 : Нет
Коррекция смещения при чтении : 48Способность читать области Lead-in и Lead-out : НетЗаполнение пропущенных сэмплов тишиной : ДаУдаление блоков с тишиной в начале и конце : НетПри вычислениях CRC использовались нулевые сэмплы : ДаИнтерфейс : Встроенный Win32-интерфейс для Win NT/2000
Выходной формат : Пользовательский кодировщикВыбранный битрейт : 768 kBit/sКачество : ВысокийДобавление ID3-тэга : НетУтилита сжатия : C:\Program Files\Exact Audio Copy\Flac\flac.exeДополнительные параметры : -6 -V -T "ARTIST=%a" -T "TITLE=%t" -T "ALBUM=%g" -T "DATE=%y" -T "TRACKNUMBER=%n" -T "GENRE=%m" -T "COMMENT=%e" %s -o %d
TOC извлечённого CD
Трек | Старт | Длительность | Начальный сектор | Конечный сектор --------------------------------------------------------------------- 1 | 0:00.00 | 2:46.72 | 0 | 12521 2 | 2:46.72 | 2:20.72 | 12522 | 23093 3 | 5:07.69 | 4:21.03 | 23094 | 42671 4 | 9:28.72 | 3:18.30 | 42672 | 57551 5 | 12:47.27 | 2:12.28 | 57552 | 67479 6 | 14:59.55 | 4:11.34 | 67480 | 86338 7 | 19:11.14 | 4:09.53 | 86339 | 105066 8 | 23:20.67 | 5:39.24 | 105067 | 130515 9 | 29:00.16 | 3:03.36 | 130516 | 144276 10 | 32:03.52 | 3:31.01 | 144277 | 160102 11 | 35:34.53 | 2:51.10 | 160103 | 172937 12 | 38:25.63 | 3:50.29 | 172938 | 190216 13 | 42:16.17 | 2:10.23 | 190217 | 199989 14 | 44:26.40 | 2:48.43 | 199990 | 212632 15 | 47:15.08 | 3:27.51 | 212633 | 228208 16 | 53:14.59 | 0:15.26 | 239609 | 240759
Характеристики диапазона извлечения и сообщения об ошибках
Выбранный диапазон
Имя файла F:\EAC\Vasselina Kasarova - Offenbach Belle Nuit\V.Kasarova - Offenbach Belle Nuit.wav
Пиковый уровень 99.6 % Качество диапазона 100.0 % CRC копии 0E2840D9 Копирование... OK
Ошибок не произошло
AccurateRip: сводка
Трек 1 точное извлечение (доверие 4) [92E681D5]Трек 2 точное извлечение (доверие 4) [5A9C0881]Трек 3 точное извлечение (доверие 4) [C8BF7528]Трек 4 точное извлечение (доверие 4) [AD1577B5]Трек 5 точное извлечение (доверие 4) [8CBE855E]Трек 6 точное извлечение (доверие 4) [6F618918]Трек 7 точное извлечение (доверие 4) [095BB357]Трек 8 точное извлечение (доверие 4) [FFB9C2EF]Трек 9 точное извлечение (доверие 4) [957D7F45]Трек 10 точное извлечение (доверие 4) [0FB6E01A]Трек 11 точное извлечение (доверие 4) [A3759613]Трек 12 точное извлечение (доверие 4) [6E8210D8]Трек 13 точное извлечение (доверие 4) [965B06C4]Трек 14 точное извлечение (доверие 4) [E85136F1]Трек 15 точность не определена (достоверность 3) [5A13A223], AccurateRip вернул [264CEEAE]
14 трек(и) скопированы точно 1 трек(и) не удалось проверить на точность
Некоторые треки не прошли проверку на точность
Конец отчёта

Лог проверки качества

Скриншот спектра частот




Показать сообщения:    

Текущее время: 19-Янв 16:04

Часовой пояс: UTC + 3


Вы не можете начинать темы
Вы не можете отвечать на сообщения
Вы не можете редактировать свои сообщения
Вы не можете удалять свои сообщения
Вы не можете голосовать в опросах
Вы не можете прикреплять файлы к сообщениям
Вы не можете скачивать файлы